[ create a new paste ] login | about

Link: http://codepad.org/akimCgzF    [ raw code | fork ]

Plain Text, pasted on May 24:
Exact Audio Copy V0.99 prebeta 5 from 4. May 2009

EAC extraction logfile from 9. September 2009, 21:02

Buddy Rich / The Greatest Drummer That Ever Lived With...The Best Band I Ever Had (2003 Audio Fidelity SACD AFZ 003)

Used drive  : PLEXTOR DVDR   PX-755A   Adapter: 5  ID: 0

Read mode               : Secure
Utilize accurate stream : Yes
Defeat audio cache      : Yes
Make use of C2 pointers : No

Read offset correction                      : 30
Overread into Lead-In and Lead-Out          : Yes
Fill up missing offset samples with silence : Yes
Delete leading and trailing silent blocks   : No
Null samples used in CRC calculations       : Yes
Used interface                              : Installed external ASPI interface

Used output format : Internal WAV Routines
Sample format      : 44.100 Hz; 16 Bit; Stereo


TOC of the extracted CD

     Track |   Start  |  Length  | Start sector | End sector 
    ---------------------------------------------------------
        1  |  0:00.00 |  6:46.35 |         0    |    30484   
        2  |  6:46.35 |  5:54.58 |     30485    |    57092   
        3  | 12:41.18 |  6:17.33 |     57093    |    85400   
        4  | 18:58.51 |  6:22.65 |     85401    |   114115   
        5  | 25:21.41 |  4:32.20 |    114116    |   134535   


Range status and errors

Selected range

     Filename C:\NL\_AF\Buddy Rich - The Greatest Drummer That Ever Lived With...The Best Band I Ever Had (2003 Audio Fidelity SACD AFZ 003).wav

     Peak level 99.2 %
     Range quality 99.9 %
     Test CRC A0B8635B
     Copy CRC A0B8635B
     Copy OK

No errors occurred

 
AccurateRip summary
 
Track  1  accurately ripped (confidence 1)  [3C63722A]
Track  2  accurately ripped (confidence 1)  [BA2090E5]
Track  3  accurately ripped (confidence 1)  [0D106EAB]
Track  4  accurately ripped (confidence 1)  [22A219AC]
Track  5  accurately ripped (confidence 1)  [70A61AAA]
 
All tracks accurately ripped

End of status report



Create a new paste based on this one


Comments: