[ create a new paste ] login | about

Link: http://codepad.org/aknc4aAh    [ raw code | fork ]

Plain Text, pasted on Dec 13:
Exact Audio Copy V1.3 from 2. September 2016

EAC extraction logfile from 1. December 2018, 15:48

Neil Young / Songs for Judy

Used drive  : ASUS    DRW-24F1ST   a   Adapter: 1  ID: 0

Read mode               : Secure
Utilize accurate stream : Yes
Defeat audio cache      : Yes
Make use of C2 pointers : No

Read offset correction                      : 6
Overread into Lead-In and Lead-Out          : No
Fill up missing offset samples with silence : Yes
Delete leading and trailing silent blocks   : No
Null samples used in CRC calculations       : Yes
Used interface                              : Native Win32 interface for Win NT & 2000
Gap handling                                : Appended to previous track

Used output format              : User Defined Encoder
Selected bitrate                : 128 kBit/s
Quality                         : High
Add ID3 tag                     : No
Command line compressor         : C:\Program Files (x86)\Exact Audio Copy\FLAC\FLAC.EXE
Additional command line options : -8 -V -T "ARTIST=%artist%" -T "TITLE=%title%" -T "ALBUM=%albumtitle%" -T "DATE=%year%" -T "TRACKNUMBER=%tracknr%" -T "TOTALTRACKS=%numtracks%" -T "GENRE=%genre%" -T "ALBUMARTIST=%albumartist%" -T "ALBUM ARTIST=%albumartist%" -T "COMMENT=EAC Secure Mode, Test & Copy, AccurateRip, FLAC -8" %source%


TOC of the extracted CD

     Track |   Start  |  Length  | Start sector | End sector 
    ---------------------------------------------------------
        1  |  0:00.00 |  3:25.40 |         0    |    15414   
        2  |  3:25.40 |  3:14.57 |     15415    |    30021   
        3  |  6:40.22 |  2:29.09 |     30022    |    41205   
        4  |  9:09.31 |  2:53.66 |     41206    |    54246   
        5  | 12:03.22 |  2:45.49 |     54247    |    66670   
        6  | 14:48.71 |  2:20.03 |     66671    |    77173   
        7  | 17:08.74 |  4:15.40 |     77174    |    96338   
        8  | 21:24.39 |  3:04.20 |     96339    |   110158   
        9  | 24:28.59 |  3:34.54 |    110159    |   126262   
       10  | 28:03.38 |  3:06.24 |    126263    |   140236   
       11  | 31:09.62 |  2:29.65 |    140237    |   151476   
       12  | 33:39.52 |  3:27.09 |    151477    |   167010   
       13  | 37:06.61 |  4:53.68 |    167011    |   189053   
       14  | 42:00.54 |  2:22.36 |    189054    |   199739   
       15  | 44:23.15 |  3:17.35 |    199740    |   214549   
       16  | 47:40.50 |  2:42.72 |    214550    |   226771   
       17  | 50:23.47 |  3:30.39 |    226772    |   242560   
       18  | 53:54.11 |  5:18.34 |    242561    |   266444   
       19  | 59:12.45 |  3:51.33 |    266445    |   283802   
       20  | 63:04.03 |  3:56.03 |    283803    |   301505   
       21  | 67:00.06 |  2:26.54 |    301506    |   312509   
       22  | 69:26.60 |  3:49.09 |    312510    |   329693   
       23  | 73:15.69 |  6:08.13 |    329694    |   357306   


Track  1

     Filename L:\EAC\01 - Songs for Judy Intro.wav

     Pre-gap length  0:00:02.02

     Peak level 96.0 %
     Extraction speed 4.0 X
     Track quality 99.9 %
     Test CRC BB90D07A
     Copy CRC BB90D07A
     Track not present in AccurateRip database
     Copy OK

Track  2

     Filename L:\EAC\02 - Too Far Gone.wav

     Peak level 96.3 %
     Extraction speed 4.8 X
     Track quality 100.0 %
     Test CRC AC8AC8F5
     Copy CRC AC8AC8F5
     Track not present in AccurateRip database
     Copy OK

Track  3

     Filename L:\EAC\03 - No One Seems to Know.wav

     Peak level 96.4 %
     Extraction speed 4.9 X
     Track quality 100.0 %
     Test CRC DB14D68A
     Copy CRC DB14D68A
     Track not present in AccurateRip database
     Copy OK

Track  4

     Filename L:\EAC\04 - Heart of Gold.wav

     Peak level 96.2 %
     Extraction speed 5.3 X
     Track quality 100.0 %
     Test CRC 20659136
     Copy CRC 20659136
     Track not present in AccurateRip database
     Copy OK

Track  5

     Filename L:\EAC\05 - White Line.wav

     Peak level 96.3 %
     Extraction speed 4.6 X
     Track quality 99.9 %
     Test CRC 3BE79C30
     Copy CRC 3BE79C30
     Track not present in AccurateRip database
     Copy OK

Track  6

     Filename L:\EAC\06 - Love Is a Rose.wav

     Peak level 95.6 %
     Extraction speed 5.3 X
     Track quality 100.0 %
     Test CRC DD63C1BF
     Copy CRC DD63C1BF
     Track not present in AccurateRip database
     Copy OK

Track  7

     Filename L:\EAC\07 - After the Gold Rush.wav

     Peak level 96.0 %
     Extraction speed 6.2 X
     Track quality 100.0 %
     Test CRC 21545D5F
     Copy CRC 21545D5F
     Track not present in AccurateRip database
     Copy OK

Track  8

     Filename L:\EAC\08 - Human Highway.wav

     Peak level 96.5 %
     Extraction speed 5.3 X
     Track quality 99.9 %
     Test CRC F4F7AE71
     Copy CRC F4F7AE71
     Track not present in AccurateRip database
     Copy OK

Track  9

     Filename L:\EAC\09 - Tell Me Why.wav

     Peak level 96.2 %
     Extraction speed 6.5 X
     Track quality 100.0 %
     Test CRC 542E1766
     Copy CRC 542E1766
     Track not present in AccurateRip database
     Copy OK

Track 10

     Filename L:\EAC\10 - Mr. Soul.wav

     Peak level 96.4 %
     Extraction speed 6.4 X
     Track quality 100.0 %
     Test CRC B72A1E66
     Copy CRC B72A1E66
     Track not present in AccurateRip database
     Copy OK

Track 11

     Filename L:\EAC\11 - Mellow My Mind.wav

     Peak level 95.5 %
     Extraction speed 6.4 X
     Track quality 100.0 %
     Test CRC B24C6616
     Copy CRC B24C6616
     Track not present in AccurateRip database
     Copy OK

Track 12

     Filename L:\EAC\12 - Give Me Strength.wav

     Peak level 95.3 %
     Extraction speed 6.0 X
     Track quality 99.9 %
     Test CRC B877EC4B
     Copy CRC B877EC4B
     Track not present in AccurateRip database
     Copy OK

Track 13

     Filename L:\EAC\13 - A Man Needs a Maid.wav

     Peak level 96.5 %
     Extraction speed 7.5 X
     Track quality 100.0 %
     Test CRC 09C32A51
     Copy CRC 09C32A51
     Track not present in AccurateRip database
     Copy OK

Track 14

     Filename L:\EAC\14 - Roll Another Number.wav

     Peak level 93.9 %
     Extraction speed 6.8 X
     Track quality 100.0 %
     Test CRC 7233C700
     Copy CRC 7233C700
     Track not present in AccurateRip database
     Copy OK

Track 15

     Filename L:\EAC\15 - Journey Through the Past.wav

     Peak level 96.5 %
     Extraction speed 7.4 X
     Track quality 100.0 %
     Test CRC 8B113C21
     Copy CRC 8B113C21
     Track not present in AccurateRip database
     Copy OK

Track 16

     Filename L:\EAC\16 - Harvest.wav

     Peak level 94.8 %
     Extraction speed 7.3 X
     Track quality 100.0 %
     Test CRC 6D00AE3C
     Copy CRC 6D00AE3C
     Track not present in AccurateRip database
     Copy OK

Track 17

     Filename L:\EAC\17 - Campaigner.wav

     Peak level 94.5 %
     Extraction speed 7.8 X
     Track quality 100.0 %
     Test CRC 167650F2
     Copy CRC 167650F2
     Track not present in AccurateRip database
     Copy OK

Track 18

     Filename L:\EAC\18 - Old Laughing Lady.wav

     Peak level 96.1 %
     Extraction speed 8.4 X
     Track quality 100.0 %
     Test CRC 74F47D40
     Copy CRC 74F47D40
     Track not present in AccurateRip database
     Copy OK

Track 19

     Filename L:\EAC\19 - The Losing End (When You're On).wav

     Peak level 93.2 %
     Extraction speed 8.3 X
     Track quality 100.0 %
     Test CRC 879E5B0E
     Copy CRC 879E5B0E
     Track not present in AccurateRip database
     Copy OK

Track 20

     Filename L:\EAC\20 - Here We Are In the Years.wav

     Peak level 93.6 %
     Extraction speed 7.6 X
     Track quality 99.9 %
     Test CRC 41BFD074
     Copy CRC 41BFD074
     Track not present in AccurateRip database
     Copy OK

Track 21

     Filename L:\EAC\21 - The Needle and the Damage Done.wav

     Peak level 94.7 %
     Extraction speed 6.5 X
     Track quality 99.9 %
     Test CRC 552CA0F3
     Copy CRC 552CA0F3
     Track not present in AccurateRip database
     Copy OK

Track 22

     Filename L:\EAC\22 - Pocahontas.wav

     Peak level 95.3 %
     Extraction speed 8.6 X
     Track quality 100.0 %
     Test CRC DF48B725
     Copy CRC DF48B725
     Track not present in AccurateRip database
     Copy OK

Track 23

     Filename L:\EAC\23 - Sugar Mountain.wav

     Peak level 96.1 %
     Extraction speed 9.0 X
     Track quality 99.9 %
     Test CRC 80DC5D6E
     Copy CRC 80DC5D6E
     Track not present in AccurateRip database
     Copy OK


None of the tracks are present in the AccurateRip database

No errors occurred

End of status report

==== Log checksum 9EB9A857B2E6E93AB1BB4649C8799CBCA0AF95006B28B7114CE92399BB051193 ====



Create a new paste based on this one


Comments: