[ create a new paste ] login | about

Link: http://codepad.org/anipaZBC    [ raw code | fork ]

Plain Text, pasted on Jan 22:
foobar2000 1.5 / Dynamic Range Meter 1.1.1
log date: 2020-01-22 07:12:37

--------------------------------------------------------------------------------
Analyzed: John Hiatt / Bring The Family
--------------------------------------------------------------------------------

DR         Peak         RMS     Duration Track
--------------------------------------------------------------------------------
DR12      -0.24 dB   -14.45 dB      3:56 01-Memphis In The Meantime
DR13      -0.25 dB   -16.34 dB      4:42 02-Alone In The Dark
DR13      -0.06 dB   -15.59 dB      4:10 03-Thing Called Love
DR12      -0.05 dB   -15.64 dB      4:10 04-Lipstick Sunset
DR12      -2.41 dB   -17.39 dB      4:01 05-Have A Little Faith In Me
DR13      -2.69 dB   -17.79 dB      4:06 06-Thank You Girl
DR13      -2.40 dB   -18.87 dB      5:50 07-Tip Of My Tongue
DR13      -2.19 dB   -17.36 dB      4:01 08-Your Dad Did
DR15      -0.04 dB   -18.04 dB      5:56 09-Stood Up
DR11      -5.69 dB   -20.09 dB      4:06 10-Learning How To Love You
--------------------------------------------------------------------------------

Number of tracks:  10
Official DR value: DR13

Samplerate:        44100 Hz
Channels:          2
Bits per sample:   16
Bitrate:           715 kbps
Codec:             FLAC
================================================================================




Create a new paste based on this one


Comments: