[ create a new paste ] login | about

Link: http://codepad.org/antbXGCB    [ raw code | fork ]

Plain Text, pasted on Apr 19:
[CUETools log; Date: 4/19/2018 9:34:56 AM; Version: 2.1.5]
[CTDB TOCID: wJndwwdQehJndPIdNBYIneJDLdI-] found.
Track | CTDB Status
  1   | (6/6) Accurately ripped
  2   | (6/6) Accurately ripped
  3   | (6/6) Accurately ripped
  4   | (6/6) Accurately ripped
  5   | (6/6) Accurately ripped
  6   | (6/6) Accurately ripped
  7   | (6/6) Accurately ripped
  8   | (6/6) Accurately ripped
  9   | (6/6) Accurately ripped
 10   | (6/6) Accurately ripped
 11   | (6/6) Accurately ripped
 12   | (6/6) Accurately ripped
[AccurateRip ID: 0016c10d-00d4d4a6-920c560c] found.
Track   [  CRC   |   V2   ] Status
 01     [f42061f5|5f13f4a3] (0+6/6) Accurately ripped
 02     [602fd01d|17bad2f8] (0+6/6) Accurately ripped
 03     [5d9a7bc5|9f678e9c] (0+6/6) Accurately ripped
 04     [31675e19|5b2eb19d] (0+6/6) Accurately ripped
 05     [8f14ada3|f99a837f] (0+6/6) Accurately ripped
 06     [7bdeeb10|1f5b674d] (0+6/6) Accurately ripped
 07     [0d70f731|6a9a737f] (0+6/6) Accurately ripped
 08     [1d69441d|266f83c3] (0+6/6) Accurately ripped
 09     [6efbea1b|242c1963] (0+6/6) Accurately ripped
 10     [5ca43505|e3862f9f] (0+6/6) Accurately ripped
 11     [f26d61fb|eb0503cc] (0+6/6) Accurately ripped
 12     [1c1c8941|bed8adfb] (0+6/6) Accurately ripped

Track Peak [ CRC32  ] [W/O NULL] [  LOG   ]
 --   97.2 [DD444C5B] [BBFB3EE2]           
 01   84.0 [ECBB50E7] [BE7770C3]   CRC32   
 02   82.0 [98103C81] [D551D429]   CRC32   
 03   80.1 [4B6996DF] [106F0C43]   CRC32   
 04   77.5 [604B8606] [29378DE0]   CRC32   
 05   91.4 [D6B56BC0] [1D4CBF9C]   CRC32   
 06   83.1 [5FEBC120] [E9FBF5F0]   CRC32   
 07   96.2 [F929C28D] [838E0077]   CRC32   
 08   77.0 [9192C957] [7867C778]   CRC32   
 09   74.7 [97B6D214] [E48F77A9]   CRC32   
 10   97.2 [B6B77FA0] [6C38D872]   CRC32   
 11   76.4 [14B2694E] [44870198]   CRC32   
 12   96.8 [A968BC41] [132EEC4E]   CRC32   



Create a new paste based on this one


Comments: