[ create a new paste ] login | about

Link: http://codepad.org/aoYJtqIU    [ raw code | fork ]

Plain Text, pasted on Jul 21:
foobar2000 1.3.17 / Dynamic Range Meter 1.1.1
log date: 2018-07-20 20:47:55

--------------------------------------------------------------------------------
Analyzed: EARTH, WIND & FIRE / THAT'S THE WAY OF THE WORLD: ALIVE IN '75
--------------------------------------------------------------------------------

DR         Peak         RMS     Duration Track
--------------------------------------------------------------------------------
DR9       -2.59 dB   -20.78 dB      0:58 01-Overture
DR12      -0.43 dB   -16.21 dB      5:34 02-Shining Star
DR12      -0.20 dB   -15.20 dB      5:39 03-Happy Feelin'
DR11      -0.36 dB   -15.10 dB      4:56 04-Yearnin' Learnin'
DR11      -0.01 dB   -15.08 dB      7:38 05-Sun Goddess
DR12      -6.14 dB   -28.61 dB      0:54 06-Interlude
DR11      -0.21 dB   -13.47 dB      3:01 07-Evil
DR12      -0.29 dB   -15.24 dB      7:00 08-Kalimba Story
DR12      -0.42 dB   -16.34 dB      9:42 09-Reasons
DR10      -0.27 dB   -13.59 dB      4:51 10-Mighty Mighty
DR10      -0.09 dB   -13.23 dB      8:28 11-That's The Way Of The World
--------------------------------------------------------------------------------

Number of tracks:  11
Official DR value: DR11

Samplerate:        88200 Hz
Channels:          6
Bits per sample:   24
Bitrate:           7823 kbps
Codec:             FLAC
================================================================================




Create a new paste based on this one


Comments: