[ create a new paste ] login | about

Link: http://codepad.org/ap7Koq7F    [ raw code | fork ]

Plain Text, pasted on Jan 24:
foobar2000 1.5 / Dynamic Range Meter 1.1.1
log date: 2020-01-24 19:24:38

--------------------------------------------------------------------------------
Analyzed: Pet Shop Boys / Hotspot
--------------------------------------------------------------------------------

DR         Peak         RMS     Duration Track
--------------------------------------------------------------------------------
DR5       -1.10 dB    -7.59 dB      4:28 01-Will-o-the-wisp
DR6       -1.10 dB    -9.34 dB      3:35 02-You are the one
DR6       -1.10 dB    -9.17 dB      3:51 03-Happy people
DR6       -0.10 dB    -7.29 dB      3:28 04-Dreamland
DR7       -1.10 dB    -9.44 dB      5:01 05-Hoping for a miracle
DR6       -1.10 dB    -8.68 dB      4:03 06-I don't wanna
DR5       -1.10 dB    -7.89 dB      4:09 07-Monkey business
DR5       -1.10 dB    -8.09 dB      3:38 08-Only the dark
DR5       -1.10 dB    -7.49 dB      5:27 09-Burning the heather
DR6       -0.89 dB    -9.09 dB      4:39 10-Wedding in Berlin
--------------------------------------------------------------------------------

Number of tracks:  10
Official DR value: DR6

Samplerate:        44100 Hz
Channels:          2
Bits per sample:   24
Bitrate:           1549 kbps
Codec:             FLAC
================================================================================




Create a new paste based on this one


Comments: