[ create a new paste ] login | about

Link: http://codepad.org/apHs2kVn    [ raw code | fork ]

Plain Text, pasted on Sep 24:
foobar2000 1.4.6 / Dynamic Range Meter 1.1.1
log date: 2019-09-24 10:39:11

--------------------------------------------------------------------------------
Analyzed: Scorpions / Moment Of Glory
--------------------------------------------------------------------------------

DR         Peak         RMS     Duration Track
--------------------------------------------------------------------------------
DR14      -0.01 dB   -16.19 dB      6:03 01-Hurricane 2000
DR13      -1.25 dB   -17.04 dB      5:27 02-Moment Of Glory
DR13      -0.39 dB   -17.17 dB      6:19 03-Send Me An Angel
DR12      -1.09 dB   -17.24 dB      7:35 04-Wind Of Change
DR12      -1.91 dB   -19.07 dB      6:47 05-Crossfire (instrumental)
DR13      -1.19 dB   -15.25 dB      7:21 06-Deadly Sting Suite (instrumental)
DR13      -0.73 dB   -16.58 dB      4:18 07-Here In My Heart
DR12      -1.71 dB   -16.74 dB      8:04 08-Still Loving You
DR12      -1.17 dB   -14.55 dB      4:37 09-Big City Nights
DR13      -0.74 dB   -17.89 dB      5:23 10-Lady Starlight
--------------------------------------------------------------------------------

Number of tracks:  10
Official DR value: DR13

Samplerate:        88200 Hz
Channels:          2
Bits per sample:   24
Bitrate:           2767 kbps
Codec:             FLAC
================================================================================




Create a new paste based on this one


Comments: