[ create a new paste ] login | about

Link: http://codepad.org/aqRsum0c    [ raw code | fork ]

Plain Text, pasted on Sep 30:
foobar2000 1.2.2 / Dynamic Range Meter 1.1.1
log date: 2013-04-08 14:33:18

--------------------------------------------------------------------------------
Analyzed: Tony Bennett / The Ultimate Tony Bennett (SACD)
--------------------------------------------------------------------------------

DR         Peak         RMS     Duration Track
--------------------------------------------------------------------------------
DR9       -2.03 dB   -15.52 dB      2:54 01-I Left My Heart In San Francisco
DR10      -0.81 dB   -13.70 dB      2:59 02-Because Of You
DR11      -0.80 dB   -14.93 dB      2:51 03-Rags To Riches
DR11      -3.03 dB   -16.58 dB      2:35 04-Just In Time
DR9       -3.39 dB   -14.67 dB      3:08 05-Stranger In Paradise
DR14      -0.66 dB   -16.93 dB      2:33 06-The Boulevard Of Broken Dreams (Gigolo And Gigolette)
DR11      -1.60 dB   -15.56 dB      2:12 07-I Wanna Be Around
DR10      -0.85 dB   -13.60 dB      2:17 08-The Good Life
DR10      -2.09 dB   -16.63 dB      3:40 09-The Shadow Of Your Smile
DR11      -2.15 dB   -16.03 dB      2:40 10-Put On A Happy Face (from 'Bye Bye Birdie')
DR9       -1.51 dB   -14.05 dB      3:02 11-If I Ruled The World
DR10      -3.29 dB   -16.99 dB      3:36 12-Smile
DR14      -1.48 dB   -18.13 dB      3:38 13-Night And Day
DR12      -0.88 dB   -17.31 dB      4:21 14-How Do You Keep The Music Playing
DR13      -0.63 dB   -17.50 dB      4:36 15-Mood Indigo
DR7       -6.12 dB   -15.09 dB      3:03 16-Blue Velvet
DR13      -0.88 dB   -17.23 dB      2:55 17-Steppin' Out With My Baby
DR10      -3.17 dB   -17.21 dB      3:08 18-When Joanna Loved Me
DR12      -0.75 dB   -16.93 dB      2:59 19-When Do The Bells Ring For Me
DR12      -1.70 dB   -15.83 dB      2:29 20-The Best Is Yet To Come
--------------------------------------------------------------------------------

Number of tracks:  20
Official DR value: DR11

Samplerate:        88200 Hz
Channels:          2
Bits per sample:   24
Bitrate:           2904 kbps
Codec:             FLAC
================================================================================




Create a new paste based on this one


Comments: