[ create a new paste ] login | about

Link: http://codepad.org/auY5sAqu    [ raw code | fork ]

Plain Text, pasted on Sep 8:
DISC 1

foobar2000 1.5 / Dynamic Range Meter 1.1.1
log date: 2020-09-08 02:22:45

--------------------------------------------------------------------------------
Analyzed: Harry Belafonte / BELAFONTE AT CARNEGIE HALL THE COMPLETE CONCERT DISC 1
--------------------------------------------------------------------------------

DR         Peak         RMS     Duration Track
--------------------------------------------------------------------------------
DR11      -4.64 dB   -20.21 dB      3:57 01-Introduction - Darlin' Cora
DR12      -6.60 dB   -23.54 dB      5:01 02-Sylvie
DR11      -5.92 dB   -20.43 dB      4:18 03-Cotton Fields
DR11      -6.19 dB   -21.21 dB      5:12 04-John Henry
DR11      -6.03 dB   -22.97 dB      5:11 05-Take My Mother Home
DR11      -4.40 dB   -19.80 dB      4:36 06-The Marching Saints
DR10      -6.76 dB   -20.81 dB      3:41 07-Day O
DR11      -6.45 dB   -21.83 dB      5:12 08-Jamaica Farewell
DR11      -6.44 dB   -22.50 dB      6:32 09-Man Piaba
DR11      -6.22 dB   -20.71 dB      3:55 10-All My Trials
--------------------------------------------------------------------------------

Number of tracks:  10
Official DR value: DR11

Samplerate:        2822400 Hz / PCM Samplerate: 176400 Hz
Channels:          2
Bits per sample:   1
Bitrate:           5645 kbps
Codec:             DSD64
================================================================================



DISC 2

foobar2000 1.5 / Dynamic Range Meter 1.1.1
log date: 2020-09-08 02:23:49

--------------------------------------------------------------------------------
Analyzed: Harry Belafonte / BELAFONTE AT CARNEGIE HALL THE COMPLETE CONCERT DISC 2
--------------------------------------------------------------------------------

DR         Peak         RMS     Duration Track
--------------------------------------------------------------------------------
DR12      -4.46 dB   -20.26 dB      5:22 01-Mama Look A Boo Boo
DR12      -8.43 dB   -24.52 dB      3:08 02-Come Back Liza
DR12      -5.50 dB   -20.83 dB      4:29 03-Man Smart (Woman Smarter)
DR10      -5.27 dB   -19.67 dB      4:01 04-Hava Nageela
DR10      -8.18 dB   -24.01 dB      5:30 05-Danny Boy
DR14      -5.63 dB   -23.22 dB      2:50 06-Merci Bon Dieu (From The "Haitian Suite")
DR11      -4.71 dB   -20.35 dB      6:51 07-Cu Cu Ru Cu Cu Paloma
DR11      -7.78 dB   -23.89 dB      3:53 08-Shenandoah
DR11      -4.16 dB   -18.66 dB     12:44 09-Matilda
--------------------------------------------------------------------------------

Number of tracks:  9
Official DR value: DR11

Samplerate:        2822400 Hz / PCM Samplerate: 176400 Hz
Channels:          2
Bits per sample:   1
Bitrate:           5645 kbps
Codec:             DSD64
================================================================================




Create a new paste based on this one


Comments: