[ create a new paste ] login | about

Link: http://codepad.org/awMWqyIu    [ raw code | fork ]

Plain Text, pasted on Apr 17:
foobar2000 1.3.17 / Dynamic Range Meter 1.1.1
log date: 2018-04-17 11:28:32

--------------------------------------------------------------------------------
Analyzed: Rickie Lee Jones / It's Like This
--------------------------------------------------------------------------------

DR         Peak         RMS     Duration Track
--------------------------------------------------------------------------------
DR13      -2.88 dB   -18.90 dB      4:38 01-Show Biz Kids
DR14      -2.88 dB   -20.73 dB      5:12 02-Trouble Man
DR12      -5.94 dB   -21.17 dB      2:34 03-For No One
DR13      -3.29 dB   -22.64 dB      1:49 04-Smile
DR14      -1.34 dB   -20.54 dB      5:14 05-Low Spark of High Heeled Boys
DR12      -2.63 dB   -17.69 dB      3:27 06-On The Street Where You Live
DR14      -5.25 dB   -22.33 dB      4:30 07-I Can't Get Started
DR13      -1.92 dB   -18.47 dB      2:50 08-Up A Lazy River
DR14      -4.96 dB   -22.88 dB      2:03 09-Someone To Watch Over Me
DR13      -3.98 dB   -21.75 dB      3:17 10-Cycles
DR13      -4.28 dB   -21.93 dB      2:02 11-One Hand, One Heart
--------------------------------------------------------------------------------

Number of tracks:  11
Official DR value: DR13

Samplerate:        88200 Hz
Channels:          2
Bits per sample:   24
Bitrate:           2368 kbps
Codec:             FLAC
================================================================================




Create a new paste based on this one


Comments: