[ create a new paste ] login | about

Link: http://codepad.org/ayojapCz    [ raw code | fork ]

Plain Text, pasted on Aug 7:
Exact Audio Copy V0.99 prebeta 5 from 4. May 2009

EAC extraction logfile from 21. July 2009, 21:41

The Wallflowers / Bringing Down The Horse

Used drive  : ASUS    DRW-1608P   Adapter: 2  ID: 0

Read mode               : Secure
Utilize accurate stream : Yes
Defeat audio cache      : Yes
Make use of C2 pointers : No

Read offset correction                      : 48
Overread into Lead-In and Lead-Out          : No
Fill up missing offset samples with silence : Yes
Delete leading and trailing silent blocks   : No
Null samples used in CRC calculations       : Yes
Used interface                              : Installed external ASPI interface

Used output format              : User Defined Encoder
Selected bitrate                : 1024 kBit/s
Quality                         : High
Add ID3 tag                     : No
Command line compressor         : C:\Program Files (x86)\Exact Audio Copy\Flac\flac.exe
Additional command line options : -5 -V -T "ARTIST=%a" -T "TITLE=%t" -T "ALBUM=%g" -T "DATE=%y" -T "TRACKNUMBER=%n" -T "GENRE=%m" -T "COMMENT=EAC FLAC -5" %s


TOC of the extracted CD

     Track |   Start  |  Length  | Start sector | End sector 
    ---------------------------------------------------------
        1  |  0:00.00 |  5:12.47 |         0    |    23446   
        2  |  5:12.47 |  5:37.30 |     23447    |    48751   
        3  | 10:50.02 |  3:41.30 |     48752    |    65356   
        4  | 14:31.32 |  4:59.33 |     65357    |    87814   
        5  | 19:30.65 |  3:50.12 |     87815    |   105076   
        6  | 23:21.02 |  4:47.48 |    105077    |   126649   
        7  | 28:08.50 |  3:39.32 |    126650    |   143106   
        8  | 31:48.07 |  5:09.00 |    143107    |   166281   
        9  | 36:57.07 |  4:48.70 |    166282    |   187951   
       10  | 41:46.02 |  4:21.50 |    187952    |   207576   
       11  | 46:07.52 |  5:02.25 |    207577    |   230251   


Range status and errors

Selected range

     Filename F:\Wallflowers\1996 - Bringing Down The Horse\The Wallflowers - Bringing Down The Horse.wav

     Peak level 100.0 %
     Range quality 100.0 %
     Test CRC 83FD66AB
     Copy CRC 83FD66AB
     Copy OK

No errors occurred

 
AccurateRip summary
 
Track  1  accurately ripped (confidence 15)  [217CDD47]
Track  2  accurately ripped (confidence 15)  [54DFC78D]
Track  3  accurately ripped (confidence 15)  [A9447A59]
Track  4  accurately ripped (confidence 15)  [5A7AAD8A]
Track  5  accurately ripped (confidence 15)  [316EB465]
Track  6  accurately ripped (confidence 15)  [502EDDF4]
Track  7  accurately ripped (confidence 15)  [FB96F503]
Track  8  accurately ripped (confidence 15)  [93631A9B]
Track  9  accurately ripped (confidence 15)  [F20BCA4A]
Track 10  accurately ripped (confidence 14)  [D8553FF4]
Track 11  accurately ripped (confidence 14)  [C98CD7D2]
 
All tracks accurately ripped

End of status report



Create a new paste based on this one


Comments: