[ create a new paste ] login | about

Link: http://codepad.org/b2DtHVCI    [ raw code | fork ]

Plain Text, pasted on Aug 14:
foobar2000 1.3.17 / Dynamic Range Meter 1.1.1
log date: 2018-08-14 16:24:57

--------------------------------------------------------------------------------
Analyzed: THE VENTURES / ?
--------------------------------------------------------------------------------

DR         Peak         RMS     Duration Track
--------------------------------------------------------------------------------
DR9       -3.73 dB   -13.36 dB      2:08 01-WALK DON'T RUN
DR8       -2.91 dB   -13.35 dB      2:28 02-THE CRUEL SEA
DR8       -4.02 dB   -13.04 dB      2:36 03-TELSTAR
DR6       -3.81 dB   -11.30 dB      2:15 04-BLACK SAND BEACH
DR7       -3.69 dB   -12.58 dB      2:57 05-APACHE
DR6       -6.29 dB   -12.92 dB      1:59 06-OUT OF LIMITS
DR8       -3.61 dB   -13.09 dB      2:16 07-LET'S GO
DR7       -4.05 dB   -12.95 dB      2:10 08-STRANGER IN MIDOSUJI
DR9       -3.77 dB   -14.04 dB      2:13 09-REFLECTIONS IN A PALACE LAKE
DR8       -3.67 dB   -12.79 dB      2:03 10-GINZA LIGHTS
DR7       -3.74 dB   -12.02 dB      2:30 11-KYOTO DOLL
DR7       -4.91 dB   -13.39 dB      2:20 12-PAINT IT BLACK!
DR7       -4.76 dB   -13.18 dB      2:29 13-WALK DON'T RUN '64
DR6       -4.12 dB   -11.70 dB      3:09 14-HOUSE OF THE RISING SUN
DR8       -3.83 dB   -13.05 dB      2:13 15-SLAUGHTER ON 10TH AVENUE
DR7       -3.74 dB   -12.48 dB      1:47 16-HAWAII FIVE-O
DR8       -3.75 dB   -13.10 dB      3:52 17-WIPE OUT
DR8       -3.82 dB   -13.81 dB      2:14 18-DIAMOND HEAD
DR8       -3.85 dB   -13.63 dB      2:23 19-PIPELINE
DR7       -3.78 dB   -12.54 dB      2:49 20-CARAVAN
--------------------------------------------------------------------------------

Number of tracks:  20
Official DR value: DR8

Samplerate:        2822400 Hz / PCM Samplerate: 176400 Hz
Channels:          2
Bits per sample:   1
Bitrate:           5645 kbps
Codec:             DSD64
================================================================================




Create a new paste based on this one


Comments: