[ create a new paste ] login | about

Link: http://codepad.org/b4mYw9Ba    [ raw code | fork ]

Plain Text, pasted on Oct 16:
foobar2000 1.4.6 / Dynamic Range Meter 1.1.1
log date: 2019-10-16 10:28:48

--------------------------------------------------------------------------------
Analyzed: Yellow Magic Orchestra / BGM
--------------------------------------------------------------------------------

DR         Peak         RMS     Duration Track
--------------------------------------------------------------------------------
DR8       -5.33 dB   -14.81 dB      4:33 01-Ballet
DR8       -5.31 dB   -15.07 dB      4:32 02-Music Plans
DR8       -5.26 dB   -14.81 dB      4:31 03-Rap Phenomena
DR11      -5.32 dB   -18.81 dB      4:31 04-Happy End
DR7       -5.25 dB   -14.17 dB      5:22 05-1000 Knives
DR8       -5.10 dB   -14.51 dB      4:31 06-Cue
DR7       -5.31 dB   -13.33 dB      4:31 07-U.T
DR8       -5.06 dB   -15.17 dB      4:33 08-Camouflage
DR8       -5.24 dB   -15.23 dB      4:30 09-Mass
DR10      -5.35 dB   -20.17 dB      5:21 10-Loom
--------------------------------------------------------------------------------

Number of tracks:  10
Official DR value: DR8

Samplerate:        2822400 Hz / PCM Samplerate: 176400 Hz
Channels:          2
Bits per sample:   1
Bitrate:           5645 kbps
Codec:             DSD64
================================================================================




Create a new paste based on this one


Comments: