[ create a new paste ] login | about

Link: http://codepad.org/b6wmZRJD    [ raw code | fork ]

Plain Text, pasted on Mar 9:
Exact Audio Copy V1.3 from 2. September 2016

Отчёт EAC об извлечении, выполненном 10. ноября 2017, 18:21

Various Artists / Rock Tributes - Bon Jovi - CD 2

Дисковод: PLEXTOR DVDR   PX-L890SA   Adapter: 1  ID: 0

Режим чтения                 : Достоверность
Использование точного потока : Да
Отключение кэша аудио        : Да
Использование указателей C2  : Нет

Коррекция смещения при чтении                     : 6
Способность читать области Lead-in и Lead-out     : Нет
Заполнение пропущенных сэмплов тишиной            : Да
Удаление блоков с тишиной в начале и конце        : Нет
При вычислениях CRC использовались нулевые сэмплы : Да
Интерфейс                                         : Встроенный Win32-интерфейс для Win NT/2000
Обработка зазоров                                 : Добавлено к предыдущему треку

Выходной формат          : Пользовательский кодировщик
Выбранный битрейт        : 896 kBit/s
Качество                 : Высокий
Добавление ID3-тега      : Нет
Утилита сжатия           : C:\Program Files\Exact Audio Copy\Flac\flac.exe
Дополнительные параметры : -V -8 -T "Genre=%genre%" -T "Artist=%artist%" -T "Title=%title%" -T "Album=%albumtitle%" -T "Date=%year%" -T "Tracknumber=%tracknr%" -T "Comment=%comment%" %source%


TOC извлечённого CD

     Трек |   Старт  | Длительность | Начальный сектор | Конечный сектор 
    ---------------------------------------------------------------------
       1  |  0:00.00 |    4:06.68   |           0      |      18517      
       2  |  4:06.68 |    4:33.54   |       18518      |      39046      
       3  |  8:40.47 |    3:43.67   |       39047      |      55838      
       4  | 12:24.39 |    4:28.32   |       55839      |      75970      
       5  | 16:52.71 |    5:00.39   |       75971      |      98509      
       6  | 21:53.35 |    4:58.42   |       98510      |     120901      
       7  | 26:52.02 |    5:00.49   |      120902      |     143450      
       8  | 31:52.51 |    4:40.04   |      143451      |     164454      
       9  | 36:32.55 |    4:51.28   |      164455      |     186307      
      10  | 41:24.08 |    4:59.44   |      186308      |     208776      
      11  | 46:23.52 |    4:54.11   |      208777      |     230837      
      12  | 51:17.63 |    3:42.42   |      230838      |     247529      


Трек  1

     Имя файла E:\Classic Rock & Hard Rock\VA - Rock Tributes 5 CD Box 2006\CD 2 - Rock Tributes - Bon Jovi\01 Alex Mitchell (Circus Of Power) - Runaway.wav

     Длина предзазора  0:00:02.00

     Пиковый уровень 77.4 %
     Скорость извлечения 4.4 X
     Качество трека 100.0 %
     CRC теста 0AFABE7A
     CRC копии 0AFABE7A
     Точность не определена (достоверность 2)  [60615906], AccurateRip вернул [D7313A3D]  (AR v2)
     Копирование... OK

Трек  2

     Имя файла E:\Classic Rock & Hard Rock\VA - Rock Tributes 5 CD Box 2006\CD 2 - Rock Tributes - Bon Jovi\02 Stevie Rachelle (Tuff) - In And Out Of Love.wav

     Пиковый уровень 78.5 %
     Скорость извлечения 4.5 X
     Качество трека 100.0 %
     CRC теста DCA2A829
     CRC копии DCA2A829
     Точность не определена (достоверность 2)  [A83A083B], AccurateRip вернул [507F9D9B]  (AR v2)
     Копирование... OK

Трек  3

     Имя файла E:\Classic Rock & Hard Rock\VA - Rock Tributes 5 CD Box 2006\CD 2 - Rock Tributes - Bon Jovi\03 Kelly Hanson (Hurricane) - You Give Love A Bad Name.wav

     Пиковый уровень 72.2 %
     Скорость извлечения 4.5 X
     Качество трека 100.0 %
     CRC теста DEF0C1FE
     CRC копии DEF0C1FE
     Точность не определена (достоверность 2)  [8A5A4954], AccurateRip вернул [2DF2B973]  (AR v2)
     Копирование... OK

Трек  4

     Имя файла E:\Classic Rock & Hard Rock\VA - Rock Tributes 5 CD Box 2006\CD 2 - Rock Tributes - Bon Jovi\04 Marq Torien (BulletBoys) - Livin' On A Prayer.wav

     Пиковый уровень 70.8 %
     Скорость извлечения 4.6 X
     Качество трека 100.0 %
     CRC теста 920C9F6A
     CRC копии 920C9F6A
     Точность не определена (достоверность 2)  [45EDE5A0], AccurateRip вернул [E3C1613C]  (AR v2)
     Копирование... OK

Трек  5

     Имя файла E:\Classic Rock & Hard Rock\VA - Rock Tributes 5 CD Box 2006\CD 2 - Rock Tributes - Bon Jovi\05 Phil Lewis (L.A. Guns) - Wanted Dead Or Alive.wav

     Пиковый уровень 69.0 %
     Скорость извлечения 4.7 X
     Качество трека 100.0 %
     CRC теста 730A0657
     CRC копии 730A0657
     Точное извлечение (достоверность 1)  [22814112]  (AR v2)
     Копирование... OK

Трек  6

     Имя файла E:\Classic Rock & Hard Rock\VA - Rock Tributes 5 CD Box 2006\CD 2 - Rock Tributes - Bon Jovi\06 Jani Lane (Warrant) - Lay Your Hands On Me.wav

     Пиковый уровень 66.9 %
     Скорость извлечения 4.7 X
     Качество трека 100.0 %
     CRC теста 7DEF74AD
     CRC копии 7DEF74AD
     Точность не определена (достоверность 2)  [77E70DA6], AccurateRip вернул [EE7DA9BD]  (AR v2)
     Копирование... OK

Трек  7

     Имя файла E:\Classic Rock & Hard Rock\VA - Rock Tributes 5 CD Box 2006\CD 2 - Rock Tributes - Bon Jovi\07 Jizzy Pearl (Love,Hate) - Bad Medicine.wav

     Пиковый уровень 60.2 %
     Скорость извлечения 4.7 X
     Качество трека 100.0 %
     CRC теста 15709CB6
     CRC копии 15709CB6
     Точность не определена (достоверность 2)  [F644D11C], AccurateRip вернул [C016E33D]  (AR v2)
     Копирование... OK

Трек  8

     Имя файла E:\Classic Rock & Hard Rock\VA - Rock Tributes 5 CD Box 2006\CD 2 - Rock Tributes - Bon Jovi\08 John Corabi (Motley Crue) - Born To Be My Baby.wav

     Пиковый уровень 72.2 %
     Скорость извлечения 4.7 X
     Качество трека 100.0 %
     CRC теста C35E1C14
     CRC копии C35E1C14
     Точность не определена (достоверность 2)  [240B6633], AccurateRip вернул [0F52EC7E]  (AR v2)
     Копирование... OK

Трек  9

     Имя файла E:\Classic Rock & Hard Rock\VA - Rock Tributes 5 CD Box 2006\CD 2 - Rock Tributes - Bon Jovi\09 Spike (London Quireboys) - Living In Sin.wav

     Пиковый уровень 56.0 %
     Скорость извлечения 4.7 X
     Качество трека 100.0 %
     CRC теста 67463C63
     CRC копии 67463C63
     Точное извлечение (достоверность 1)  [50A1F3EB]  (AR v2)
     Копирование... OK

Трек 10

     Имя файла E:\Classic Rock & Hard Rock\VA - Rock Tributes 5 CD Box 2006\CD 2 - Rock Tributes - Bon Jovi\10 Chaz (The Jason Bonham Band) - I'll Be There For You.wav

     Пиковый уровень 67.5 %
     Скорость извлечения 4.7 X
     Качество трека 100.0 %
     CRC теста E2F758F1
     CRC копии E2F758F1
     Точное извлечение (достоверность 1)  [178DF0DB]  (AR v2)
     Копирование... OK

Трек 11

     Имя файла E:\Classic Rock & Hard Rock\VA - Rock Tributes 5 CD Box 2006\CD 2 - Rock Tributes - Bon Jovi\11 Kory Clarke (Warrior Soul) - Blaze Of Glory.wav

     Пиковый уровень 48.8 %
     Скорость извлечения 4.3 X
     Качество трека 99.9 %
     CRC теста 580F50CD
     CRC копии 580F50CD
     Точность не определена (достоверность 2)  [02AB8DA8], AccurateRip вернул [9ACFF4E3]  (AR v2)
     Копирование... OK

Трек 12

     Имя файла E:\Classic Rock & Hard Rock\VA - Rock Tributes 5 CD Box 2006\CD 2 - Rock Tributes - Bon Jovi\12 Dangerous Boys - It's My Life (Remix).wav

     Пиковый уровень 54.0 %
     Скорость извлечения 4.4 X
     Качество трека 100.0 %
     CRC теста 1FDE776D
     CRC копии 1FDE776D
     Точность не определена (достоверность 2)  [6460FFF4], AccurateRip вернул [65A669EC]  (AR v2)
     Копирование... OK


 3 трек(и) скопированы точно
 9 трек(и) не удалось проверить на точность

Некоторые треки не прошли проверку на точность

Ошибок не произошло

Конец отчёта

---- CUETools DB Plugin V2.1.6

[CTDB TOCID: GP_yh5p9.XPzuyJTpZTZRVPb3d4-] found
Submit result: GP_yh5p9.XPzuyJTpZTZRVPb3d4- has been confirmed
Track | CTDB Status
  1   | (3/3) Accurately ripped
  2   | (3/3) Accurately ripped
  3   | (3/3) Accurately ripped
  4   | (3/3) Accurately ripped
  5   | (3/3) Accurately ripped
  6   | (3/3) Accurately ripped
  7   | (3/3) Accurately ripped
  8   | (3/3) Accurately ripped
  9   | (3/3) Accurately ripped
 10   | (3/3) Accurately ripped
 11   | (3/3) Accurately ripped
 12   | (3/3) Accurately ripped


==== Контрольная сумма отчёта 870A6F5AF309B3617CF780DF1067961F5F488DE5D548A4F80D33BCC69B0BD9FF ====



Create a new paste based on this one


Comments: