[ create a new paste ] login | about

Link: http://codepad.org/b7TqTp3G    [ raw code | fork ]

Plain Text, pasted on Apr 20:
foobar2000 1.3 / Dynamic Range Meter 1.1.1
log date: 2014-05-29 12:16:58

--------------------------------------------------------------------------------
Analyzed: Isao Tomita / Moussorgsky-Tomita: Pictures At An Exhibition - Ultimate Edition (2014 Hybrid SACD)
--------------------------------------------------------------------------------

DR         Peak         RMS     Duration Track
--------------------------------------------------------------------------------
DR14      -0.04 dB   -19.81 dB      4:45 01-Pictures At An Exhibition: Promenade; Gnomes
DR12      -4.42 dB   -20.40 dB      6:22 02-Pictures At An Exhibition: Promenade; The Old Castle
DR12      -6.43 dB   -23.09 dB      1:27 03-Pictures At An Exhibition: Promenade; Tuileries
DR11      -2.38 dB   -19.55 dB      3:19 04-Pictures At An Exhibition: Bydlo
DR13      -0.55 dB   -18.63 dB      2:07 05-Pictures At An Exhibition: Promenade; Ballet Of The Chicks In Their Shell
DR13      -0.31 dB   -18.12 dB      3:06 06-Pictures At An Exhibition: Samuel Goldenberg And Schmuyle
DR12      -0.72 dB   -17.08 dB      1:13 07-Pictures At An Exhibition: The Market Place At Limoges
DR10      -1.62 dB   -16.79 dB      2:37 08-Pictures At An Exhibition: Catacombs
DR11      -2.81 dB   -20.99 dB      2:11 09-Pictures At An Exhibition: Con Mortuis In Lingua Mortua
DR11      -0.32 dB   -15.51 dB      3:42 10-Pictures At An Exhibition: The Hut Of Baba Yaga
DR11      -0.14 dB   -15.68 dB      6:28 11-Pictures At An Exhibition: The Great Gate At Kiev
DR14      -0.34 dB   -21.39 dB      4:34 12-Sheherazade
DR12      -4.64 dB   -22.50 dB      5:20 13-The Sea Named 'Solaris'
--------------------------------------------------------------------------------

Number of tracks:  13
Official DR value: DR12

Samplerate:        88200 Hz
Channels:          2
Bits per sample:   24
Bitrate:           2377 kbps
Codec:             FLAC
================================================================================




Create a new paste based on this one


Comments: