[ create a new paste ] login | about

Link: http://codepad.org/b8dQFlKW    [ raw code | fork ]

Plain Text, pasted on Oct 12:
foobar2000 1.3.17 / Dynamic Range Meter 1.1.1
log date: 2018-10-06 18:45:52

--------------------------------------------------------------------------------
Analyzed: Elton John / Tumbleweed Connection
--------------------------------------------------------------------------------

DR         Peak         RMS     Duration Track
--------------------------------------------------------------------------------
DR12      -5.62 dB   -18.93 dB      4:56 01-Ballad Of A Well-Known Gun
DR13      -5.96 dB   -22.53 dB      3:23 02-Come Down In Time
DR12      -5.77 dB   -19.80 dB      5:06 03-Country Comfort
DR12      -5.61 dB   -18.85 dB      3:46 04-Son Of Your Father
DR10      -5.71 dB   -18.28 dB      6:18 05-My Father's Gun
DR13      -3.69 dB   -19.06 dB      4:13 06-Where To Now St. Peter?
DR13      -6.17 dB   -26.80 dB      3:40 07-Love Song
DR13      -5.65 dB   -21.04 dB      4:55 08-Amoreena
DR13      -5.97 dB   -26.63 dB      4:04 09-Talking Old Soldiers
DR13      -5.94 dB   -21.85 dB      6:18 10-Burn Down The Mission
DR11      -5.80 dB   -19.46 dB      4:01 11-Into The Old Man's Shoes
DR11      -5.72 dB   -19.34 dB      8:57 12-Madman Across The Water
--------------------------------------------------------------------------------

Number of tracks:  12
Official DR value: DR12

Samplerate:        2822400 Hz / PCM Samplerate: 176400 Hz
Channels:          6
Bits per sample:   1
Bitrate:           16934 kbps
Codec:             DST64
================================================================================

--------------------------------------------------------------------------------
Analyzed: Elton John / Tumbleweed Connection
--------------------------------------------------------------------------------

DR         Peak         RMS     Duration Track
--------------------------------------------------------------------------------
DR9       -4.18 dB   -15.20 dB      4:59 01-Ballad Of A Well-Known Gun
DR10      -4.17 dB   -17.70 dB      3:26 02-Come Down In Time
DR8       -4.61 dB   -15.17 dB      5:07 03-Country Comfort
DR8       -4.22 dB   -14.55 dB      3:48 04-Son Of Your Father
DR7       -4.17 dB   -14.69 dB      6:21 05-My Father's Gun
DR8       -4.20 dB   -14.08 dB      4:13 06-Where To Now St. Peter?
DR11      -5.24 dB   -20.49 dB      3:42 07-Love Song
DR8       -4.26 dB   -15.40 dB      5:00 08-Amoreena
DR12      -4.44 dB   -21.58 dB      4:09 09-Talking Old Soldiers
DR8       -4.17 dB   -15.43 dB      6:22 10-Burn Down The Mission
DR8       -4.25 dB   -14.88 dB      4:04 11-Into The Old Man's Shoes
DR9       -4.07 dB   -15.03 dB      8:57 12-Madman Across The Water
--------------------------------------------------------------------------------

Number of tracks:  12
Official DR value: DR9

Samplerate:        2822400 Hz / PCM Samplerate: 176400 Hz
Channels:          2
Bits per sample:   1
Bitrate:           5645 kbps
Codec:             DST64
================================================================================




Create a new paste based on this one


Comments: