[ create a new paste ] login | about

Link: http://codepad.org/bF9hQbx9    [ raw code | fork ]

Plain Text, pasted on Aug 26:
EAC extraction logfile from 11. June 2007, 18:58 for CD
The Nat ''King'' Cole Trio / The Complete Capitol Recordings Of The Nat ''King'' Cole Trio - Disc 14

Used drive  : HL-DT-STDVD-ROM GDR8164B   Adapter: 0  ID: 1
Read mode   : Secure with NO C2, accurate stream, disable cache
Read offset correction : 102
Overread into Lead-In and Lead-Out : No

Used output format : C:\Programmi\Exact Audio Copy\flac.exe   (User Defined Encoder)
                     128 kBit/s
                     Additional command line options : -V -8 -T "artist=%a" -T "title=%t" -T "album=%g" -T "date=%y" -T "tracknumber=%n" -T "genre=%m" %s

Other options      : 
    Fill up missing offset samples with silence : Yes
    Delete leading and trailing silent blocks : No
    Native Win32 interface for Win NT & 2000


Track  1
     Filename D:\TORRENTS\Nat King Cole 3 - The Complete Capitol Recordings of the NKC Trio (1991) [FLAC] {Mosaic MD18 - 138}\CD 14\01 - Your Voice (J3).wav

     Pre-gap length  0:00:02.44

     Peak level 81.2 %
     Track quality 100.0 %
     Test CRC 8107DD45
     Copy CRC 8107DD45
     Copy OK

Track  2
     Filename D:\TORRENTS\Nat King Cole 3 - The Complete Capitol Recordings of the NKC Trio (1991) [FLAC] {Mosaic MD18 - 138}\CD 14\02 - A Little Yellow Ribbon (In Her Hair) (J3).wav

     Pre-gap length  0:00:02.44

     Peak level 91.8 %
     Track quality 100.0 %
     Test CRC BABB4219
     Copy CRC BABB4219
     Copy OK

Track  3
     Filename D:\TORRENTS\Nat King Cole 3 - The Complete Capitol Recordings of the NKC Trio (1991) [FLAC] {Mosaic MD18 - 138}\CD 14\03 - My Mother Told Me (K3).wav

     Pre-gap length  0:00:02.60

     Peak level 76.8 %
     Track quality 100.0 %
     Test CRC CFE94DFE
     Copy CRC CFE94DFE
     Copy OK

Track  4
     Filename D:\TORRENTS\Nat King Cole 3 - The Complete Capitol Recordings of the NKC Trio (1991) [FLAC] {Mosaic MD18 - 138}\CD 14\04 - Exactly Like You (K3).wav

     Pre-gap length  0:00:02.46

     Peak level 82.5 %
     Track quality 100.0 %
     Test CRC 10C3439B
     Copy CRC 10C3439B
     Copy OK

Track  5
     Filename D:\TORRENTS\Nat King Cole 3 - The Complete Capitol Recordings of the NKC Trio (1991) [FLAC] {Mosaic MD18 - 138}\CD 14\05 - Part Of Me (K3).wav

     Pre-gap length  0:00:02.53

     Peak level 88.5 %
     Track quality 100.0 %
     Test CRC 16D10C7B
     Copy CRC 16D10C7B
     Copy OK

Track  6
     Filename D:\TORRENTS\Nat King Cole 3 - The Complete Capitol Recordings of the NKC Trio (1991) [FLAC] {Mosaic MD18 - 138}\CD 14\06 - What Have You Got In Those Eyes  (K3).wav

     Pre-gap length  0:00:02.33

     Peak level 94.9 %
     Track quality 100.0 %
     Test CRC 281BDE5E
     Copy CRC 281BDE5E
     Copy OK

Track  7
     Filename D:\TORRENTS\Nat King Cole 3 - The Complete Capitol Recordings of the NKC Trio (1991) [FLAC] {Mosaic MD18 - 138}\CD 14\07 - Top Hat Bop (K3).wav

     Pre-gap length  0:00:02.62

     Peak level 94.3 %
     Track quality 100.0 %
     Test CRC F1D4CBBE
     Copy CRC F1D4CBBE
     Copy OK

Track  8
     Filename D:\TORRENTS\Nat King Cole 3 - The Complete Capitol Recordings of the NKC Trio (1991) [FLAC] {Mosaic MD18 - 138}\CD 14\08 - Go Bongo (K3).wav

     Pre-gap length  0:00:02.66

     Peak level 93.5 %
     Track quality 100.0 %
     Test CRC 13D90222
     Copy CRC 13D90222
     Copy OK

Track  9
     Filename D:\TORRENTS\Nat King Cole 3 - The Complete Capitol Recordings of the NKC Trio (1991) [FLAC] {Mosaic MD18 - 138}\CD 14\09 - Rhumba Blues (K3).wav

     Pre-gap length  0:00:01.93

     Peak level 80.5 %
     Track quality 100.0 %
     Test CRC 2B491985
     Copy CRC 2B491985
     Copy OK

Track 10
     Filename D:\TORRENTS\Nat King Cole 3 - The Complete Capitol Recordings of the NKC Trio (1991) [FLAC] {Mosaic MD18 - 138}\CD 14\10 - Boulevard Of Broken Dreams (K3).wav

     Pre-gap length  0:00:02.16

     Peak level 84.1 %
     Track quality 100.0 %
     Test CRC 7657CE19
     Copy CRC 7657CE19
     Copy OK

Track 11
     Filename D:\TORRENTS\Nat King Cole 3 - The Complete Capitol Recordings of the NKC Trio (1991) [FLAC] {Mosaic MD18 - 138}\CD 14\11 - All I Want For Christmas (Is My Two Front Teeth) (L3).wav

     Pre-gap length  0:00:02.20

     Peak level 98.4 %
     Track quality 100.0 %
     Test CRC 094A2FB8
     Copy CRC 094A2FB8
     Copy OK

Track 12
     Filename D:\TORRENTS\Nat King Cole 3 - The Complete Capitol Recordings of the NKC Trio (1991) [FLAC] {Mosaic MD18 - 138}\CD 14\12 - You Can't Loose A Broken Heart (L3).wav

     Pre-gap length  0:00:02.06

     Peak level 90.7 %
     Track quality 100.0 %
     Test CRC 26628A81
     Copy CRC 26628A81
     Copy OK

Track 13
     Filename D:\TORRENTS\Nat King Cole 3 - The Complete Capitol Recordings of the NKC Trio (1991) [FLAC] {Mosaic MD18 - 138}\CD 14\13 - Bang Bang Boogie (L3).wav

     Pre-gap length  0:00:02.22

     Peak level 98.4 %
     Track quality 100.0 %
     Test CRC 1C59D45F
     Copy CRC 1C59D45F
     Copy OK

Track 14
     Filename D:\TORRENTS\Nat King Cole 3 - The Complete Capitol Recordings of the NKC Trio (1991) [FLAC] {Mosaic MD18 - 138}\CD 14\14 - (Here Is My Heart) Nalani (M3).wav

     Pre-gap length  0:00:03.09

     Peak level 90.7 %
     Track quality 100.0 %
     Test CRC C04BBD72
     Copy CRC C04BBD72
     Copy OK

Track 15
     Filename D:\TORRENTS\Nat King Cole 3 - The Complete Capitol Recordings of the NKC Trio (1991) [FLAC] {Mosaic MD18 - 138}\CD 14\15 - The Horse Told Me (M3).wav

     Pre-gap length  0:00:02.30

     Peak level 98.4 %
     Track quality 100.0 %
     Test CRC E7CE021F
     Copy CRC E7CE021F
     Copy OK

Track 16
     Filename D:\TORRENTS\Nat King Cole 3 - The Complete Capitol Recordings of the NKC Trio (1991) [FLAC] {Mosaic MD18 - 138}\CD 14\16 - Don't Shove, I'm Leaving (M3).wav

     Pre-gap length  0:00:02.76

     Peak level 77.1 %
     Track quality 99.9 %
     Test CRC BA72AF62
     Copy CRC BA72AF62
     Copy OK

Track 17
     Filename D:\TORRENTS\Nat King Cole 3 - The Complete Capitol Recordings of the NKC Trio (1991) [FLAC] {Mosaic MD18 - 138}\CD 14\17 - Calypso Blues (M3).wav

     Pre-gap length  0:00:02.24

     Peak level 64.2 %
     Track quality 100.0 %
     Test CRC C9BD3EA2
     Copy CRC C9BD3EA2
     Copy OK

Track 18
     Filename D:\TORRENTS\Nat King Cole 3 - The Complete Capitol Recordings of the NKC Trio (1991) [FLAC] {Mosaic MD18 - 138}\CD 14\18 - Mule Train (N3).wav

     Pre-gap length  0:00:02.62

     Peak level 91.7 %
     Track quality 99.9 %
     Test CRC 1159B7D8
     Copy CRC 1159B7D8
     Copy OK

Track 19
     Filename D:\TORRENTS\Nat King Cole 3 - The Complete Capitol Recordings of the NKC Trio (1991) [FLAC] {Mosaic MD18 - 138}\CD 14\19 - My Baby Just Cares For Me (N3).wav

     Pre-gap length  0:00:02.82

     Peak level 81.3 %
     Track quality 99.9 %
     Test CRC 1DCCBDCE
     Copy CRC 1DCCBDCE
     Copy OK

Track 20
     Filename D:\TORRENTS\Nat King Cole 3 - The Complete Capitol Recordings of the NKC Trio (1991) [FLAC] {Mosaic MD18 - 138}\CD 14\20 - For You My Love (O3).wav

     Pre-gap length  0:00:02.56

     Peak level 77.0 %
     Track quality 100.0 %
     Test CRC 9B683036
     Copy CRC 9B683036
     Copy OK

Track 21
     Filename D:\TORRENTS\Nat King Cole 3 - The Complete Capitol Recordings of the NKC Trio (1991) [FLAC] {Mosaic MD18 - 138}\CD 14\21 - Can I Come In For A Second  (O3).wav

     Pre-gap length  0:00:02.42

     Peak level 96.5 %
     Track quality 100.0 %
     Test CRC 6184CE4A
     Copy CRC 6184CE4A
     Copy OK

No errors occured


End of status report



Create a new paste based on this one


Comments: