[ create a new paste ] login | about

Link: http://codepad.org/bNkEsQDC    [ raw code | fork ]

Plain Text, pasted on Dec 20:
foobar2000 1.6 / Dynamic Range Meter 1.1.1
log date: 2020-12-20 05:36:48

--------------------------------------------------------------------------------
Analyzed: Various Artists / The Wonderful Sounds of Christmas
--------------------------------------------------------------------------------

DR         Peak         RMS     Duration Track
--------------------------------------------------------------------------------
DR12      -8.64 dB   -24.17 dB      3:11 01-The Christmas Song (Merry Christmas To You)
DR15      -6.08 dB   -25.40 dB      4:10 02-Baby, It's Cold Outside
DR12     -11.13 dB   -27.27 dB      2:47 03-Christmas Time Is Here (Vocal)
DR13      -9.98 dB   -24.67 dB      2:52 04-Please Come Home For Christmas
DR10     -11.57 dB   -23.99 dB      2:05 05-Rockin' Around The Christmas Tree
DR14      -6.18 dB   -23.10 dB      3:00 06-Sleigh Ride
DR10      -8.08 dB   -21.18 dB      3:13 07-Rudolph The Red-Nosed Reindeer
DR12      -8.32 dB   -25.96 dB      3:21 08-The Little Drummer Boy
DR12      -6.28 dB   -19.48 dB      2:11 09-Jingle Bell Rock
DR12      -7.35 dB   -24.49 dB      4:42 10-Ave Maria
DR13     -10.93 dB   -27.96 dB      6:07 11-Christmas Time Is Here (Instrumental)
DR15      -6.33 dB   -25.00 dB      2:55 12-Merry Christmas, Baby
DR14      -7.47 dB   -24.97 dB      3:31 13-Winter Wonderland
DR14      -6.95 dB   -23.07 dB      2:53 14-Please Come Home For Christmas
DR12      -7.44 dB   -21.48 dB      1:49 15-Jingle Bell Rock
DR12      -7.19 dB   -21.29 dB      3:04 16-Feliz Navidad
DR15      -7.06 dB   -25.26 dB      2:54 17-Sleigh Ride
DR11      -8.65 dB   -22.45 dB      2:53 18-Rudolph The Red-Nosed Reindeer
DR12      -8.25 dB   -23.86 dB      3:27 19-Santa Baby
DR13      -6.41 dB   -24.07 dB      3:27 20-Merry Christmas, Baby
DR13      -6.64 dB   -26.19 dB      3:30 21-Stille Nacht (Silent Night)
DR13      -5.95 dB   -23.41 dB      3:06 22-White Christmas
--------------------------------------------------------------------------------

Number of tracks:  22
Official DR value: DR13

Samplerate:        2822400 Hz / PCM Samplerate: 176400 Hz
Channels:          2
Bits per sample:   1
Bitrate:           5645 kbps
Codec:             DSD64
================================================================================




Create a new paste based on this one


Comments: