[ create a new paste ] login | about

Link: http://codepad.org/bPyAZGOU    [ raw code | fork ]

Plain Text, pasted on Dec 17:
Exact Audio Copy V1.0 beta 3 from 29. August 2011

EAC extraction logfile from 15. November 2016, 22:26

Black Sabbath / Paranoid

Used drive  : HL-DT-STBD-RE  WH12LS39   Adapter: 1  ID: 1

Read mode               : Secure
Utilize accurate stream : Yes
Defeat audio cache      : Yes
Make use of C2 pointers : No

Read offset correction                      : 667
Overread into Lead-In and Lead-Out          : No
Fill up missing offset samples with silence : Yes
Delete leading and trailing silent blocks   : No
Null samples used in CRC calculations       : Yes
Used interface                              : Native Win32 interface for Win NT & 2000
Gap handling                                : Appended to previous track

Used output format              : User Defined Encoder
Selected bitrate                : 1024 kBit/s
Quality                         : High
Add ID3 tag                     : No
Command line compressor         : C:\Program Files (x86)\Exact Audio Copy\FLAC\FLAC.EXE
Additional command line options : -8 -V -T "ARTIST=%artist%" -T "TITLE=%title%" -T "ALBUM=%albumtitle%" -T "DATE=%year%" -T "TRACKNUMBER=%tracknr%" -T "GENRE=%genre%" -T "PERFORMER=%albuminterpret%" -T "COMPOSER=%composer%" %haslyrics%--tag-from-file=LYRICS="%lyricsfile%"%haslyrics% -T "ALBUMARTIST=%albumartist%" -T "DISCNUMBER=%cdnumber%" -T "TOTALDISCS=%totalcds%" -T "TOTALTRACKS=%numtracks%" -T "COMMENT=%comment%" %source% -o %dest%


TOC of the extracted CD

     Track |   Start  |  Length  | Start sector | End sector 
    ---------------------------------------------------------
        1  |  0:00.00 |  7:55.14 |         0    |    35638   
        2  |  7:55.14 |  2:48.31 |     35639    |    48269   
        3  | 10:43.45 |  4:29.01 |     48270    |    68445   
        4  | 15:12.46 |  5:55.23 |     68446    |    95093   
        5  | 21:07.69 |  4:49.61 |     95094    |   116829   
        6  | 25:57.55 |  7:08.28 |    116830    |   148957   
        7  | 33:06.08 |  2:30.54 |    148958    |   160261   
        8  | 35:36.62 |  6:14.24 |    160262    |   188335   


Track  1

     Filename E:\Rips\Black Sabbath\Paranoid Super Deluxe\Disc 1 - Paranoid (Original Album)\01 War Pigs,Luke's Wall.wav

     Pre-gap length  0:00:02.00

     Peak level 91.1 %
     Extraction speed 1.2 X
     Track quality 100.0 %
     Test CRC E7408037
     Copy CRC E7408037
     Accurately ripped (confidence 16)  [2A75C4AD]  (AR v2)
     Copy OK

Track  2

     Filename E:\Rips\Black Sabbath\Paranoid Super Deluxe\Disc 1 - Paranoid (Original Album)\02 Paranoid.wav

     Pre-gap length  0:00:01.40

     Peak level 88.1 %
     Extraction speed 1.2 X
     Track quality 100.0 %
     Test CRC 88751447
     Copy CRC 88751447
     Accurately ripped (confidence 15)  [FA77EF31]  (AR v2)
     Copy OK

Track  3

     Filename E:\Rips\Black Sabbath\Paranoid Super Deluxe\Disc 1 - Paranoid (Original Album)\03 Planet Caravan.wav

     Pre-gap length  0:00:01.72

     Peak level 68.9 %
     Extraction speed 1.4 X
     Track quality 100.0 %
     Test CRC 26716561
     Copy CRC 26716561
     Accurately ripped (confidence 16)  [F8263A8B]  (AR v2)
     Copy OK

Track  4

     Filename E:\Rips\Black Sabbath\Paranoid Super Deluxe\Disc 1 - Paranoid (Original Album)\04 Iron Man.wav

     Pre-gap length  0:00:01.21

     Peak level 87.7 %
     Extraction speed 1.6 X
     Track quality 100.0 %
     Test CRC 41EB5D3F
     Copy CRC 41EB5D3F
     Accurately ripped (confidence 16)  [750DB859]  (AR v2)
     Copy OK

Track  5

     Filename E:\Rips\Black Sabbath\Paranoid Super Deluxe\Disc 1 - Paranoid (Original Album)\05 Electric Funeral.wav

     Pre-gap length  0:00:01.69

     Peak level 87.5 %
     Extraction speed 1.5 X
     Track quality 99.9 %
     Test CRC 065047B8
     Copy CRC 065047B8
     Accurately ripped (confidence 15)  [8876A223]  (AR v2)
     Copy OK

Track  6

     Filename E:\Rips\Black Sabbath\Paranoid Super Deluxe\Disc 1 - Paranoid (Original Album)\06 Hand Of Doom.wav

     Pre-gap length  0:00:01.20

     Peak level 87.9 %
     Extraction speed 1.9 X
     Track quality 100.0 %
     Test CRC 97D79074
     Copy CRC 97D79074
     Accurately ripped (confidence 16)  [CCAA1913]  (AR v2)
     Copy OK

Track  7

     Filename E:\Rips\Black Sabbath\Paranoid Super Deluxe\Disc 1 - Paranoid (Original Album)\07 Rat Salad.wav

     Pre-gap length  0:00:01.40

     Peak level 87.4 %
     Extraction speed 1.4 X
     Track quality 99.9 %
     Test CRC 24E6A185
     Copy CRC 24E6A185
     Accurately ripped (confidence 16)  [760B3C45]  (AR v2)
     Copy OK

Track  8

     Filename E:\Rips\Black Sabbath\Paranoid Super Deluxe\Disc 1 - Paranoid (Original Album)\08 Jack The Stripper,Fairies Wear Boots.wav

     Pre-gap length  0:00:02.09

     Peak level 86.2 %
     Extraction speed 2.0 X
     Track quality 100.0 %
     Test CRC 08046CEC
     Copy CRC 08046CEC
     Accurately ripped (confidence 16)  [D64B943C]  (AR v2)
     Copy OK


All tracks accurately ripped

No errors occurred

End of status report

---- CUETools DB Plugin V2.1.4

[CTDB TOCID: 1Voxkaj8jHxk1GwZmyLbutaBY2c-] found
Submit result: 1Voxkaj8jHxk1GwZmyLbutaBY2c- has been confirmed
Track | CTDB Status
  1   | (55/55) Accurately ripped
  2   | (54/55) Accurately ripped, or (1/55) differs in 1 samples @02:16:24
  3   | (55/55) Accurately ripped
  4   | (55/55) Accurately ripped
  5   | (54/55) Accurately ripped, or (1/55) differs in 1 samples @02:35:33
  6   | (55/55) Accurately ripped
  7   | (54/55) Accurately ripped
  8   | (55/55) Accurately ripped


==== Log checksum 477552C644F909EE6F81D91D7C7D160D2CC34F771BEAB457FCB61D0595CF9726 ====



Create a new paste based on this one


Comments: