[ create a new paste ] login | about

Link: http://codepad.org/bSfNDQFk    [ raw code | fork ]

Plain Text, pasted on Nov 20:
[CUETools log; Date: 11/19/2018 1:59:28 PM; Version: 2.1.5]
[CTDB TOCID: imIWr4zt6UtODEKjfwg5mpji7wA-] found.
Track | CTDB Status
  1   | (20/20) Accurately ripped
  2   | (20/20) Accurately ripped
  3   | (20/20) Accurately ripped
  4   | (20/20) Accurately ripped
  5   | (20/20) Accurately ripped
  6   | (20/20) Accurately ripped
  7   | (20/20) Accurately ripped
  8   | (20/20) Accurately ripped
  9   | (20/20) Accurately ripped
 10   | (20/20) Accurately ripped
 11   | (20/20) Accurately ripped
 12   | (20/20) Accurately ripped
 13   | (20/20) Accurately ripped
 14   | (20/20) Accurately ripped
 15   | (20/20) Accurately ripped
 16   | (20/20) Accurately ripped
 17   | (20/20) Accurately ripped
 18   | (20/20) Accurately ripped
 19   | (20/20) Accurately ripped
 20   | (20/20) Accurately ripped
 21   | (20/20) Accurately ripped
 22   | (20/20) Accurately ripped
 23   | (20/20) Accurately ripped
[AccurateRip ID: 002d28ef-02febeab-440d6117] found.
Track   [  CRC   |   V2   ] Status
 01     [d53871b5|dfad4b98] (0+5/5) Accurately ripped
 02     [91d92959|0bb7f4b2] (0+5/5) Accurately ripped
 03     [b182ba93|31b623e3] (0+5/5) Accurately ripped
 04     [d519a163|3d3e0d30] (0+5/5) Accurately ripped
 05     [ecf998a1|9cf3ae2c] (0+5/5) Accurately ripped
 06     [de8e7839|f400c5c6] (0+5/5) Accurately ripped
 07     [e8e94d38|ccad1a94] (0+5/5) Accurately ripped
 08     [d2dc33c4|09842562] (0+5/5) Accurately ripped
 09     [85372bac|73268a43] (0+5/5) Accurately ripped
 10     [3ec1f803|d908893b] (0+5/5) Accurately ripped
 11     [79b3e101|115db5cc] (0+5/5) Accurately ripped
 12     [90441750|a25856ff] (0+5/5) Accurately ripped
 13     [c52c0f93|591b432f] (0+5/5) Accurately ripped
 14     [d5e64588|a140c8a5] (0+5/5) Accurately ripped
 15     [fefbd691|ea5bfad8] (0+5/5) Accurately ripped
 16     [1421272a|941eb928] (0+5/5) Accurately ripped
 17     [83b43212|e5760bda] (0+5/5) Accurately ripped
 18     [b92ac062|55b2fae4] (0+5/5) Accurately ripped
 19     [4d13758d|a4f46da6] (0+5/5) Accurately ripped
 20     [0973a687|2ae6f38f] (0+5/5) Accurately ripped
 21     [f397b91d|e223bccd] (0+5/5) Accurately ripped
 22     [067914ac|afa83e7e] (0+5/5) Accurately ripped
 23     [357132e8|1c14c9ad] (0+5/5) Accurately ripped

Track Peak [ CRC32  ] [W/O NULL] [  LOG   ]
 --   87.3 [D19A5A7A] [762783A9]   CRC32   
 01   65.2 [34DAF768] [C810F543]           
 02   70.9 [4939BE3A] [20D92D74]           
 03   78.1 [55085C1C] [7EFAA9C6]           
 04   62.1 [0304C35A] [58A08838]           
 05   66.5 [23A69A6A] [EEDA0E4A]           
 06   68.8 [FC90542C] [C04C3CCF]           
 07   52.6 [0596B5C1] [00CDED03]           
 08   61.6 [F4EBAD38] [7D0C8553]           
 09   60.3 [5CE1C9AE] [F40BB6C5]           
 10   75.5 [A5AE4B32] [42AF13E4]           
 11   74.1 [2856FB9A] [985E75EB]           
 12   52.9 [4A689EC6] [E63C342E]           
 13   67.1 [7D1C8F42] [460C0E37]           
 14   64.4 [02A68E3D] [8182AC39]           
 15   68.9 [01D7679A] [CB8A8350]           
 16   82.0 [DEFA5FBC] [6D16944E]           
 17   70.5 [95B75AD9] [622D28B6]           
 18   73.8 [F1468797] [D36A1AB8]           
 19   82.4 [EA2598B0] [32874849]           
 20   87.3 [1F1F0898] [87232877]           
 21   84.6 [19C72238] [447B74FC]           
 22   59.9 [3B2B0747] [E111F4A0]           
 23   61.9 [3B618BC5] [9669392F]           



Create a new paste based on this one


Comments: