[ create a new paste ] login | about

Link: http://codepad.org/bUvO3Ela    [ raw code | fork ]

Plain Text, pasted on Jul 13:
foobar2000 1.4.4 / Dynamic Range Meter 1.1.1
log date: 2019-07-12 21:25:10

--------------------------------------------------------------------------------
Analyzed: Paul McCartney / CHOBA B CCCP (Remastered 2019)
--------------------------------------------------------------------------------

DR         Peak         RMS     Duration Track
--------------------------------------------------------------------------------
DR11      -0.47 dB   -13.32 dB      4:04 01-Kansas City
DR12      -0.47 dB   -14.40 dB      3:04 02-Twenty Flight Rock
DR12      -0.40 dB   -13.76 dB      3:18 03-Lawdy, Miss Clawdy
DR13      -0.40 dB   -15.86 dB      3:15 04-Bring It On Home To Me
DR11      -0.47 dB   -13.55 dB      3:13 05-Lucille
DR12      -0.81 dB   -14.57 dB      2:51 06-Don't Get Around Much Anymore
DR11      -0.47 dB   -13.52 dB      3:48 07-That's All Right (Mama)
DR11      -0.99 dB   -13.80 dB      3:43 08-Ain't That A Shame
DR11      -0.97 dB   -13.33 dB      3:55 09-Crackin' Up
DR10      -1.14 dB   -13.12 dB      3:34 10-Just Because
DR13      -0.47 dB   -15.69 dB      3:59 11-Midnight Special
--------------------------------------------------------------------------------

Number of tracks:  11
Official DR value: DR12

Samplerate:        96000 Hz
Channels:          2
Bits per sample:   24
Bitrate:           2772 kbps
Codec:             FLAC
================================================================================




Create a new paste based on this one


Comments: