[ create a new paste ] login | about

Link: http://codepad.org/bXV7x6OF    [ raw code | fork ]

Plain Text, pasted on Aug 1:
Exact Audio Copy V1.0 beta 3 from 29. August 2011

EAC extraction logfile from 19. October 2013, 16:06

The Beatles / Past Masters (Disc 1)

Used drive  : PLEXTOR DVDR   PX-891SA   Adapter: 1  ID: 0

Read mode               : Secure
Utilize accurate stream : Yes
Defeat audio cache      : Yes
Make use of C2 pointers : No

Read offset correction                      : 6
Overread into Lead-In and Lead-Out          : No
Fill up missing offset samples with silence : Yes
Delete leading and trailing silent blocks   : No
Null samples used in CRC calculations       : Yes
Used interface                              : Native Win32 interface for Win NT & 2000

Used output format              : User Defined Encoder
Selected bitrate                : 1024 kBit/s
Quality                         : High
Add ID3 tag                     : No
Command line compressor         : C:\Program Files\Exact Audio Copy\Flac\flac.exe
Additional command line options : -V -8 -T "Genre=%genre%" -T "Artist=%artist%" -T "Title=%title%" -T "Album=%albumtitle%" -T "Date=%year%" -T "Tracknumber=%tracknr%" -T "Comment=%comment%" %source%


TOC of the extracted CD

     Track |   Start  |  Length  | Start sector | End sector 
    ---------------------------------------------------------
        1  |  0:00.00 |  2:25.67 |         0    |    10941   
        2  |  2:25.67 |  1:57.08 |     10942    |    19724   
        3  |  4:23.00 |  2:03.45 |     19725    |    28994   
        4  |  6:26.45 |  2:21.25 |     28995    |    39594   
        5  |  8:47.70 |  2:06.31 |     39595    |    49075   
        6  | 10:54.26 |  2:26.40 |     49076    |    60065   
        7  | 13:20.66 |  2:16.06 |     60066    |    70271   
        8  | 15:36.72 |  2:25.61 |     70272    |    81207   
        9  | 18:02.58 |  2:19.30 |     81208    |    91662   
       10  | 20:22.13 |  2:02.65 |     91663    |   100877   
       11  | 22:25.03 |  2:08.71 |    100878    |   110548   
       12  | 24:33.74 |  2:56.64 |    110549    |   123812   
       13  | 27:30.63 |  1:58.56 |    123813    |   132718   
       14  | 29:29.44 |  2:19.51 |    132719    |   143194   
       15  | 31:49.20 |  3:02.66 |    143195    |   156910   
       16  | 34:52.11 |  2:20.45 |    156911    |   167455   
       17  | 37:12.56 |  2:42.31 |    167456    |   179636   
       18  | 39:55.12 |  2:33.67 |    179637    |   191178   


Range status and errors

Selected range

     Filename I:\dafnaplus\09.09.09\14 Past Masters\Disc 1\The Beatles - Past Masters (Disc 1).wav

     Peak level 96.8 %
     Extraction speed 3.0 X
     Range quality 100.0 %
     Test CRC DC0BBB84
     Copy CRC DC0BBB84
     Copy OK

No errors occurred

 
AccurateRip summary
 
Track  1  accurately ripped (confidence 200)  [B7B4C412]  (AR v2)
Track  2  accurately ripped (confidence 200)  [225A6160]  (AR v2)
Track  3  accurately ripped (confidence 200)  [6D31207D]  (AR v2)
Track  4  accurately ripped (confidence 200)  [FCA77BD3]  (AR v2)
Track  5  accurately ripped (confidence 200)  [1ED50BC4]  (AR v2)
Track  6  accurately ripped (confidence 200)  [1A1F3419]  (AR v2)
Track  7  accurately ripped (confidence 200)  [ACC14AE3]  (AR v2)
Track  8  accurately ripped (confidence 200)  [40392009]  (AR v2)
Track  9  accurately ripped (confidence 200)  [F3CC376B]  (AR v2)
Track 10  accurately ripped (confidence 200)  [20876C45]  (AR v2)
Track 11  accurately ripped (confidence 200)  [79ACD8D6]  (AR v2)
Track 12  accurately ripped (confidence 200)  [92EA17B0]  (AR v2)
Track 13  accurately ripped (confidence 200)  [ECF94C51]  (AR v2)
Track 14  accurately ripped (confidence 200)  [DFA0106F]  (AR v2)
Track 15  accurately ripped (confidence 200)  [DE32B231]  (AR v2)
Track 16  accurately ripped (confidence 200)  [6ADE0A9C]  (AR v2)
Track 17  accurately ripped (confidence 200)  [66BB4121]  (AR v2)
Track 18  accurately ripped (confidence 200)  [03AEF4EC]  (AR v2)
 
All tracks accurately ripped

End of status report

==== Log checksum 73585F97B60197D53A4CA4D7F1F37825CEB6461D535C06381851D49F54C4144C ====


Exact Audio Copy V1.0 beta 3 from 29. August 2011

EAC extraction logfile from 19. October 2013, 18:05

The Beatles / Past Masters (Disc 2)

Used drive  : PLEXTOR DVDR   PX-891SA   Adapter: 1  ID: 0

Read mode               : Secure
Utilize accurate stream : Yes
Defeat audio cache      : Yes
Make use of C2 pointers : No

Read offset correction                      : 6
Overread into Lead-In and Lead-Out          : No
Fill up missing offset samples with silence : Yes
Delete leading and trailing silent blocks   : No
Null samples used in CRC calculations       : Yes
Used interface                              : Native Win32 interface for Win NT & 2000

Used output format              : User Defined Encoder
Selected bitrate                : 1024 kBit/s
Quality                         : High
Add ID3 tag                     : No
Command line compressor         : C:\Program Files\Exact Audio Copy\Flac\flac.exe
Additional command line options : -V -8 -T "Genre=%genre%" -T "Artist=%artist%" -T "Title=%title%" -T "Album=%albumtitle%" -T "Date=%year%" -T "Tracknumber=%tracknr%" -T "Comment=%comment%" %source%


TOC of the extracted CD

     Track |   Start  |  Length  | Start sector | End sector 
    ---------------------------------------------------------
        1  |  0:00.00 |  2:49.11 |         0    |    12685   
        2  |  2:49.11 |  2:15.33 |     12686    |    22843   
        3  |  5:04.44 |  2:18.42 |     22844    |    33235   
        4  |  7:23.11 |  3:01.24 |     33236    |    46834   
        5  | 10:24.35 |  2:17.44 |     46835    |    57153   
        6  | 12:42.04 |  2:36.11 |     57154    |    68864   
        7  | 15:18.15 |  7:09.70 |     68865    |   101109   
        8  | 22:28.10 |  3:24.42 |    101110    |   116451   
        9  | 25:52.52 |  3:11.07 |    116452    |   130783   
       10  | 29:03.59 |  3:35.46 |    130784    |   146954   
       11  | 32:39.30 |  2:59.64 |    146955    |   160443   
       12  | 35:39.19 |  3:18.49 |    160444    |   175342   
       13  | 38:57.68 |  3:49.13 |    175343    |   192530   
       14  | 42:47.06 |  3:51.55 |    192531    |   209910   
       15  | 46:38.61 |  4:19.68 |    209911    |   229403   


Range status and errors

Selected range

     Filename I:\dafnaplus\09.09.09\14 Past Masters\Disc 2\The Beatles - Past Masters (Disc 2).wav

     Peak level 96.6 %
     Extraction speed 3.1 X
     Range quality 99.9 %
     Test CRC 79B10D62
     Copy CRC 79B10D62
     Copy OK

No errors occurred

 
AccurateRip summary
 
Track  1  accurately ripped (confidence 200)  [72FB0424]  (AR v2)
Track  2  accurately ripped (confidence 200)  [754E163A]  (AR v2)
Track  3  accurately ripped (confidence 200)  [9B78738D]  (AR v2)
Track  4  accurately ripped (confidence 200)  [9A931AD1]  (AR v2)
Track  5  accurately ripped (confidence 200)  [5F096ADF]  (AR v2)
Track  6  accurately ripped (confidence 200)  [8FDF3DC3]  (AR v2)
Track  7  accurately ripped (confidence 200)  [451E08D2]  (AR v2)
Track  8  accurately ripped (confidence 200)  [4674EB81]  (AR v2)
Track  9  accurately ripped (confidence 200)  [F1FB0014]  (AR v2)
Track 10  accurately ripped (confidence 200)  [640567AF]  (AR v2)
Track 11  accurately ripped (confidence 200)  [3513BD99]  (AR v2)
Track 12  accurately ripped (confidence 200)  [D95B930C]  (AR v2)
Track 13  accurately ripped (confidence 200)  [09388CBD]  (AR v2)
Track 14  accurately ripped (confidence 200)  [68584880]  (AR v2)
Track 15  accurately ripped (confidence 200)  [14764776]  (AR v2)
 
All tracks accurately ripped

End of status report

==== Log checksum 95F7C368190D9B17637EB3FB94F73719869AC03931A532FC5BF591534222589C ====



Create a new paste based on this one


Comments: