[ create a new paste ] login | about

Link: http://codepad.org/bYrs3fv9    [ raw code | fork ]

Plain Text, pasted on Sep 12:
foobar2000 1.5 / Dynamic Range Meter 1.1.1
log date: 2020-09-12 19:06:03

--------------------------------------------------------------------------------
Analyzed: Johnny Cash / I Walk The Line (2020 MFSL Hybrid SACD)
--------------------------------------------------------------------------------

DR         Peak         RMS     Duration Track
--------------------------------------------------------------------------------
DR11      -0.35 dB   -13.05 dB      2:38 01-I Walk The Line
DR12      -1.26 dB   -14.09 dB      3:00 02-Bad News
DR13      -0.63 dB   -15.01 dB      2:39 03-Folsom Prison Blues
DR11      -0.66 dB   -14.77 dB      2:25 04-Give My Love To Rose
DR11      -0.57 dB   -13.70 dB      2:23 05-Hey Porter
DR11      -1.00 dB   -14.84 dB      3:12 06-I Still Miss Someone
DR11      -2.09 dB   -15.41 dB      2:47 07-Understand Your Man
DR12      -0.31 dB   -13.53 dB      2:50 08-Wreck Of The Old '97
DR11      -2.64 dB   -15.35 dB      2:40 09-Still In Town
DR12      -0.83 dB   -14.01 dB      2:23 10-Big River
DR12      -0.50 dB   -14.04 dB      2:29 11-Goodbye Little Darlin' Goodbye
DR11      -0.33 dB   -13.53 dB      3:52 12-Troublesome Waters
--------------------------------------------------------------------------------

Number of tracks:  12
Official DR value: DR12

Samplerate:        88200 Hz
Channels:          2
Bits per sample:   24
Bitrate:           1500 kbps
Codec:             FLAC
================================================================================




Create a new paste based on this one


Comments: