[ create a new paste ] login | about

Link: http://codepad.org/bdiMzzY0    [ raw code | fork ]

Plain Text, pasted on Dec 14:
[CUETools log; Date: 12/14/2016 7:03:52 AM; Version: 2.1.5]
[CTDB TOCID: TMRN.wQMINADRjVRgayckiaLwoU-] found.
Track | CTDB Status
  1   | (38/38) Accurately ripped
  2   | (37/38) Accurately ripped
  3   | (38/38) Accurately ripped
  4   | (38/38) Accurately ripped
  5   | (38/38) Accurately ripped
  6   | (38/38) Accurately ripped
  7   | (38/38) Accurately ripped
  8   | (38/38) Accurately ripped
  9   | (38/38) Accurately ripped
[AccurateRip ID: 000bccca-0057143e-7508c409] found.
Track   [  CRC   |   V2   ] Status
 01     [16a13a13|d6f98b11] (051+068/122) Accurately ripped
 02     [26b763ac|12862260] (050+068/121) Accurately ripped
 03     [c9c1b1c3|ac5e981d] (050+068/121) Accurately ripped
 04     [895534a8|94caa462] (050+068/121) Accurately ripped
 05     [45349fd3|38294d7a] (049+068/120) Accurately ripped
 06     [f5db935d|d34f034c] (050+068/121) Accurately ripped
 07     [77ad67b2|fd0c18e5] (050+068/121) Accurately ripped
 08     [fc613e13|ec33a11c] (050+068/121) Accurately ripped
 09     [90019c33|3db01620] (050+068/121) Accurately ripped
Offsetted by -6:
 01     [1df30569] (003/122) Accurately ripped
 02     [a3fbfa5a] (003/121) Accurately ripped
 03     [bf4728de] (003/121) Accurately ripped
 04     [2a931d43] (003/121) Accurately ripped
 05     [64bd6b81] (003/120) Accurately ripped
 06     [517946cd] (003/121) Accurately ripped
 07     [9eca7e0a] (003/121) Accurately ripped
 08     [c759f09b] (003/121) Accurately ripped
 09     [e751f74f] (003/121) Accurately ripped

Track Peak [ CRC32  ] [W/O NULL] [  LOG   ]
 --  100.0 [86FCFAA6] [9EDA69CE]           
 01  100.0 [5DA1FC88] [B990FA5B]   CRC32   
 02  100.0 [84204113] [3C43C9E5]   CRC32   
 03   96.2 [59053027] [A2025728]   CRC32   
 04   96.0 [1E7B0EF3] [BD9602B5]   CRC32   
 05   93.2 [AAEE296E] [8B7397A8]   CRC32   
 06  100.0 [CF2AD336] [D26631FD]   CRC32   
 07   95.9 [C9D7E1A7] [D8376D3D]   CRC32   
 08  100.0 [D396FC95] [22E3D451]   CRC32   
 09  100.0 [23CB84FF] [6E9A13AB]   CRC32   



Create a new paste based on this one


Comments: