[ create a new paste ] login | about

Link: http://codepad.org/bkjJiBPE    [ raw code | fork ]

Plain Text, pasted on Feb 21:
foobar2000 1.5 / Dynamic Range Meter 1.1.1
log date: 2020-02-21 19:34:23

--------------------------------------------------------------------------------
Analyzed: Crystal Gatle / We Must Believe In Magic
--------------------------------------------------------------------------------

DR         Peak         RMS     Duration Track
--------------------------------------------------------------------------------
DR14      -0.10 dB   -17.71 dB      2:36 01-Don't It Make My Brown Eyes Blue
DR13      -0.12 dB   -17.39 dB      2:54 02-I Wanna Come Back To You
DR13      -0.18 dB   -16.30 dB      3:08 03-River Road
DR12      -0.05 dB   -15.04 dB      2:32 04-It's All Right With Me
DR13      -0.45 dB   -17.72 dB      3:42 05-Going Down Slow
DR13      -0.16 dB   -16.30 dB      2:26 06-All I Wanna Do In Life
DR13      -1.77 dB   -17.52 dB      3:07 07-Make A Dream Come True
DR13      -0.05 dB   -15.69 dB      3:11 08-Green Door
DR13      -0.83 dB   -16.76 dB      2:06 09-Funny
DR12      -1.27 dB   -17.41 dB      4:08 10-We Must Believe In Magic
--------------------------------------------------------------------------------

Number of tracks:  10
Official DR value: DR13

Samplerate:        96000 Hz
Channels:          2
Bits per sample:   24
Bitrate:           3048 kbps
Codec:             FLAC
================================================================================




Create a new paste based on this one


Comments: