[ create a new paste ] login | about

Link: http://codepad.org/bokPfoJz    [ raw code | fork ]

Plain Text, pasted on May 30:
foobar2000 1.4.4 / Dynamic Range Meter 1.1.1
log date: 2019-05-30 15:53:16

--------------------------------------------------------------------------------
Analyzed: B.B. King / Reflections
--------------------------------------------------------------------------------

DR         Peak         RMS     Duration Track
--------------------------------------------------------------------------------
DR12      -4.71 dB   -20.90 dB      3:19 01-Exactly Like You
DR12      -5.92 dB   -20.40 dB      3:20 02-On My Word Of Honor
DR12      -5.82 dB   -20.78 dB      2:48 03-I Want A Little Girl
DR13      -5.99 dB   -22.62 dB      3:30 04-I'll String Along With You
DR12      -5.64 dB   -20.60 dB      3:03 05-I Need You So
DR11      -5.34 dB   -19.83 dB      2:57 06-A Mother's Love
DR13      -5.94 dB   -23.01 dB      3:30 07-(I Love You) For Sentimental Reasons
DR12      -5.68 dB   -20.39 dB      4:26 08-Neighborhood Affair
DR12      -5.54 dB   -20.08 dB      3:35 09-Tomorrow Night
DR12      -5.94 dB   -22.48 dB      3:28 10-There I've Said It Again
DR13      -5.90 dB   -22.44 dB      3:56 11-Always On My Mind
DR13      -5.65 dB   -20.81 dB      4:28 12-Cross My Heart
DR12      -5.81 dB   -21.81 dB      3:57 13-What A Wonderful World
--------------------------------------------------------------------------------

Number of tracks:  13
Official DR value: DR12

Samplerate:        2822400 Hz / PCM Samplerate: 176400 Hz
Channels:          6
Bits per sample:   1
Bitrate:           16934 kbps
Codec:             DST64
================================================================================

--------------------------------------------------------------------------------
Analyzed: B.B. King / Reflections
--------------------------------------------------------------------------------

DR         Peak         RMS     Duration Track
--------------------------------------------------------------------------------
DR9       -5.08 dB   -15.73 dB      3:19 01-Exactly Like You
DR7       -5.12 dB   -14.08 dB      3:20 02-On My Word Of Honor
DR7       -5.04 dB   -14.89 dB      2:48 03-I Want A Little Girl
DR8       -5.50 dB   -15.76 dB      3:30 04-I'll String Along With You
DR7       -5.45 dB   -14.33 dB      3:03 05-I Need You So
DR7       -5.01 dB   -14.43 dB      2:57 06-A Mother's Love
DR8       -5.43 dB   -16.07 dB      3:30 07-(I Love You) For Sentimental Reasons
DR8       -5.36 dB   -15.08 dB      4:26 08-Neighborhood Affair
DR8       -5.34 dB   -14.97 dB      3:35 09-Tomorrow Night
DR7       -5.43 dB   -15.79 dB      3:27 10-There I've Said It Again
DR7       -5.20 dB   -15.02 dB      3:55 11-Always On My Mind
DR8       -5.13 dB   -15.53 dB      4:28 12-Cross My Heart
DR8       -5.47 dB   -16.15 dB      3:57 13-What A Wonderful World
--------------------------------------------------------------------------------

Number of tracks:  13
Official DR value: DR8

Samplerate:        2822400 Hz / PCM Samplerate: 176400 Hz
Channels:          2
Bits per sample:   1
Bitrate:           5645 kbps
Codec:             DST64
================================================================================




Create a new paste based on this one


Comments: