[ create a new paste ] login | about

Link: http://codepad.org/btzjmQY7    [ raw code | fork ]

Plain Text, pasted on Dec 5:
Exact Audio Copy V1.1 from 23. June 2015

EAC extraction logfile from 2. December 2016, 18:02

Lou Reed / John Cale / Songs For Drella

Used drive  : PLEXTOR BD-R  PX-B950SA   Adapter: 1  ID: 1

Read mode               : Secure
Utilize accurate stream : Yes
Defeat audio cache      : Yes
Make use of C2 pointers : No

Read offset correction                      : 6
Overread into Lead-In and Lead-Out          : No
Fill up missing offset samples with silence : Yes
Delete leading and trailing silent blocks   : No
Null samples used in CRC calculations       : Yes
Used interface                              : Native Win32 interface for Win NT & 2000

Used output format : Internal WAV Routines
Sample format      : 44.100 Hz; 16 Bit; Stereo


TOC of the extracted CD

     Track |   Start  |  Length  | Start sector | End sector 
    ---------------------------------------------------------
        1  |  0:00.00 |  2:04.25 |         0    |     9324   
        2  |  2:04.25 |  4:17.37 |      9325    |    28636   
        3  |  6:21.62 |  2:54.20 |     28637    |    41706   
        4  |  9:16.07 |  2:37.45 |     41707    |    53526   
        5  | 11:53.52 |  3:41.33 |     53527    |    70134   
        6  | 15:35.10 |  3:28.22 |     70135    |    85756   
        7  | 19:03.32 |  4:12.05 |     85757    |   104661   
        8  | 23:15.37 |  3:30.43 |    104662    |   120454   
        9  | 26:46.05 |  3:05.05 |    120455    |   134334   
       10  | 29:51.10 |  3:30.02 |    134335    |   150086   
       11  | 33:21.12 |  3:17.68 |    150087    |   164929   
       12  | 36:39.05 |  3:45.62 |    164930    |   181866   
       13  | 40:24.67 |  6:33.03 |    181867    |   211344   
       14  | 46:57.70 |  4:51.67 |    211345    |   233236   
       15  | 51:49.62 |  3:03.03 |    233237    |   246964   


Range status and errors

Selected range

     Filename C:\Lou Reed\2015 Sire Years Complete Albums (10CD Box Set Rhino Records)\1990 Songs For Drella\Lou Reed John Cale - Songs For Drella.wav

     Peak level 100.0 %
     Extraction speed 7.0 X
     Range quality 100.0 %
     Test CRC 09529EA0
     Copy CRC 09529EA0
     Copy OK

No errors occurred

 
AccurateRip summary
 
Track  1  accurately ripped (confidence 5)  [E8B2717B]  (AR v2)
Track  2  accurately ripped (confidence 5)  [4B489A74]  (AR v2)
Track  3  accurately ripped (confidence 5)  [1D64B43A]  (AR v2)
Track  4  accurately ripped (confidence 5)  [ACB3E6B4]  (AR v2)
Track  5  accurately ripped (confidence 5)  [F02EF433]  (AR v2)
Track  6  accurately ripped (confidence 5)  [3E8EE7B5]  (AR v2)
Track  7  accurately ripped (confidence 5)  [202F3F5E]  (AR v2)
Track  8  accurately ripped (confidence 5)  [B2DC61FA]  (AR v2)
Track  9  accurately ripped (confidence 5)  [13EEE0F8]  (AR v2)
Track 10  accurately ripped (confidence 5)  [DAF01427]  (AR v2)
Track 11  accurately ripped (confidence 5)  [80057DFF]  (AR v2)
Track 12  accurately ripped (confidence 5)  [8F6E4B6A]  (AR v2)
Track 13  accurately ripped (confidence 5)  [11CBA131]  (AR v2)
Track 14  accurately ripped (confidence 5)  [A59C6D9C]  (AR v2)
Track 15  accurately ripped (confidence 5)  [6922FD6C]  (AR v2)
 
All tracks accurately ripped

End of status report

---- CUETools DB Plugin V2.1.6

[CTDB TOCID: bthXT6lzG6IbEBjtdRF2i4VGFm4-] found
Submit result: bthXT6lzG6IbEBjtdRF2i4VGFm4- has been confirmed
Track | CTDB Status
  1   | (337/339) Accurately ripped
  2   | (336/339) Accurately ripped
  3   | (337/339) Accurately ripped
  4   | (336/339) Accurately ripped
  5   | (335/339) Accurately ripped
  6   | (336/339) Accurately ripped
  7   | (335/339) Accurately ripped
  8   | (334/339) Accurately ripped
  9   | (336/339) Accurately ripped
 10   | (333/339) Accurately ripped
 11   | (336/339) Accurately ripped
 12   | (333/339) Accurately ripped
 13   | (334/339) Accurately ripped
 14   | (333/339) Accurately ripped
 15   | (336/339) Accurately ripped


==== Log checksum 832AA4DC12846FDC90D840C99AC8C3FADE434B0507DFA0BE0B3F3561939BA9C8 ====



Create a new paste based on this one


Comments: