[ create a new paste ] login | about

Link: http://codepad.org/bwV7I2pD    [ raw code | fork ]

Plain Text, pasted on Feb 21:
CD1
---

[CUETools log; Date: 2/21/2021 6:23:40 PM; Version: 2.1.7]
[CTDB TOCID: stzunuGo_io0ftgrX5ypOTGPGYs-] found.
Track | CTDB Status
  1   | (17/17) Accurately ripped
  2   | (17/17) Accurately ripped
  3   | (17/17) Accurately ripped
  4   | (17/17) Accurately ripped
  5   | (17/17) Accurately ripped
  6   | (17/17) Accurately ripped
  7   | (17/17) Accurately ripped
  8   | (17/17) Accurately ripped
  9   | (17/17) Accurately ripped
 10   | (17/17) Accurately ripped
 11   | (17/17) Accurately ripped
 12   | (17/17) Accurately ripped
 13   | (17/17) Accurately ripped
 14   | (17/17) Accurately ripped
 15   | (17/17) Accurately ripped
 16   | (17/17) Accurately ripped
 17   | (17/17) Accurately ripped
 18   | (17/17) Accurately ripped
 19   | (17/17) Accurately ripped
[AccurateRip ID: 0028d3ce-02427e70-1e0e4a13] found.
Track   [  CRC   |   V2   ] Status
 01     [2d98802d|1d96e9d1] (0+3/3) Accurately ripped
 02     [70e3f911|019de278] (0+3/3) Accurately ripped
 03     [e15ef467|fe47ac4a] (0+3/3) Accurately ripped
 04     [8fbee3e9|4b114a63] (0+3/3) Accurately ripped
 05     [010ec60f|e31a5882] (0+3/3) Accurately ripped
 06     [a933038e|4169a374] (0+3/3) Accurately ripped
 07     [0c3ae659|237896b4] (0+3/3) Accurately ripped
 08     [5ac71207|dcf0dc88] (0+3/3) Accurately ripped
 09     [1fe94e96|80320679] (0+3/3) Accurately ripped
 10     [8af0f575|2c14fdb9] (0+3/3) Accurately ripped
 11     [cc21c50a|17823b02] (0+3/3) Accurately ripped
 12     [b9efc1fa|87b91d71] (0+3/3) Accurately ripped
 13     [54e65959|161eaa6d] (0+3/3) Accurately ripped
 14     [0ff0f3e8|4136b082] (0+3/3) Accurately ripped
 15     [4626f428|b2399434] (0+3/3) Accurately ripped
 16     [aa781318|d9a812e6] (0+3/3) Accurately ripped
 17     [2979bf3e|5ed33cce] (0+3/3) Accurately ripped
 18     [ec2983b6|47e1d46d] (0+3/3) Accurately ripped
 19     [ca0e69ff|c3d65308] (0+3/3) Accurately ripped

Track Peak [ CRC32  ] [W/O NULL] [  LOG   ]
 --   98.8 [3E2E1D71] [68989F61]           
 01   96.7 [1113CA9B] [B4E45D06]   CRC32   
 02   93.9 [D98FEB40] [03BCDD1B]   CRC32   
 03   98.0 [317B6C26] [E4B69A9C]   CRC32   
 04   96.0 [557AEDBB] [231F1297]   CRC32   
 05   98.3 [300C4677] [D1030755]   CRC32   
 06   89.9 [33BCDF27] [A8C9D254]   CRC32   
 07   87.1 [FC9BB8E7] [D364E55A]   CRC32   
 08   98.6 [01DEF284] [FC20F306]   CRC32   
 09   87.2 [51E0944B] [64419D0A]   CRC32   
 10   86.0 [1970FA95] [5B134E35]   CRC32   
 11   93.1 [EBCB6B47] [48985254]   CRC32   
 12   89.2 [AD8B9EB6] [AD010627]   CRC32   
 13   98.0 [D99C8186] [DD265509]   CRC32   
 14   87.7 [CE487FC4] [5C5BAAE7]   CRC32   
 15   89.8 [4A50BB21] [2B04E8E5]   CRC32   
 16   89.0 [09A65250] [49D4A244]   CRC32   
 17   98.8 [1442AA20] [58D75DFE]   CRC32   
 18   77.5 [7111DCFD] [B5489EBF]   CRC32   
 19   85.0 [A192E7C9] [EEA5765F]   CRC32   


CD2
---

[CUETools log; Date: 2/21/2021 6:23:49 PM; Version: 2.1.7]
[CTDB TOCID: OuU1YL7IKAwr8vvovUFfkjCwjNc-] found.
Track | CTDB Status
  1   | (20/20) Accurately ripped
  2   | (20/20) Accurately ripped
  3   | (20/20) Accurately ripped
  4   | (20/20) Accurately ripped
  5   | (20/20) Accurately ripped
  6   | (20/20) Accurately ripped
  7   | (20/20) Accurately ripped
  8   | (20/20) Accurately ripped
  9   | (20/20) Accurately ripped
 10   | (20/20) Accurately ripped
 11   | (20/20) Accurately ripped
 12   | (20/20) Accurately ripped
 13   | (20/20) Accurately ripped
 14   | (20/20) Accurately ripped
 15   | (20/20) Accurately ripped
[AccurateRip ID: 001cd336-0145870c-b80d6b0f] found.
Track   [  CRC   |   V2   ] Status
 01     [3ef9176b|d8263c62] (0+3/3) Accurately ripped
 02     [ae0515ba|7e7cf8f3] (0+3/3) Accurately ripped
 03     [1e405ac7|2fee3a9a] (0+3/3) Accurately ripped
 04     [a429f02d|4579e33a] (0+3/3) Accurately ripped
 05     [121b1f64|54494ae7] (0+3/3) Accurately ripped
 06     [28fadf5e|41ad170c] (0+3/3) Accurately ripped
 07     [b5a58dda|f99cddf6] (0+3/3) Accurately ripped
 08     [2eb7e201|10c5c88f] (0+3/3) Accurately ripped
 09     [4de5078c|5871ca0f] (0+3/3) Accurately ripped
 10     [199f71f6|2015cd75] (0+3/3) Accurately ripped
 11     [06607e15|fe412021] (0+3/3) Accurately ripped
 12     [37896610|1c0c7139] (0+3/3) Accurately ripped
 13     [ded77a31|d7b592aa] (0+3/3) Accurately ripped
 14     [788e2cbf|a4a07508] (0+3/3) Accurately ripped
 15     [9714b074|85d2f051] (0+3/3) Accurately ripped

Track Peak [ CRC32  ] [W/O NULL] [  LOG   ]
 --   98.8 [A6B30C78] [0B8A3F71]           
 01   98.8 [84CB153A] [D5A6B813]   CRC32   
 02   98.8 [E0531A10] [0AF8D87C]   CRC32   
 03   91.1 [27605F1E] [BB324C18]   CRC32   
 04   78.5 [04475BB8] [F2854C86]   CRC32   
 05   95.8 [B0E82957] [ACCF1E06]   CRC32   
 06   93.7 [91B77627] [8F57E38D]   CRC32   
 07   98.8 [627B09B5] [63931120]   CRC32   
 08   93.0 [D35F10F9] [D5DA1A7A]   CRC32   
 09   90.0 [48F4A454] [6FCB431C]   CRC32   
 10   92.0 [50CABD51] [C7CD0B04]   CRC32   
 11   98.8 [B7F34335] [BF38C6E4]   CRC32   
 12   98.8 [B77FA88D] [C0C970E3]   CRC32   
 13   87.9 [E83B22FA] [F36A4D37]   CRC32   
 14   98.8 [69A7C63D] [902B5039]   CRC32   
 15   98.8 [061B4CCD] [9C02A8E4]   CRC32   


CD3
---

[CUETools log; Date: 2/21/2021 6:23:58 PM; Version: 2.1.7]
[CTDB TOCID: MnX7uOSwHDtDystYsNfv0_Mnz_Q-] found.
Track | CTDB Status
  1   | (21/21) Accurately ripped
  2   | (21/21) Accurately ripped
  3   | (21/21) Accurately ripped
  4   | (21/21) Accurately ripped
  5   | (21/21) Accurately ripped
  6   | (21/21) Accurately ripped
  7   | (21/21) Accurately ripped
  8   | (21/21) Accurately ripped
  9   | (21/21) Accurately ripped
 10   | (21/21) Accurately ripped
 11   | (21/21) Accurately ripped
 12   | (21/21) Accurately ripped
 13   | (21/21) Accurately ripped
 14   | (21/21) Accurately ripped
 15   | (21/21) Accurately ripped
[AccurateRip ID: 00183b87-01196bec-b00be10f] found.
Track   [  CRC   |   V2   ] Status
 01     [787cfa39|e6736be5] (0+3/3) Accurately ripped
 02     [977f120f|7e4528f9] (0+3/3) Accurately ripped
 03     [5dbe95a6|b2f69fab] (0+3/3) Accurately ripped
 04     [c089d364|e1678d7e] (0+3/3) Accurately ripped
 05     [f7037804|4c87526b] (0+3/3) Accurately ripped
 06     [45335a08|21caf18c] (0+3/3) Accurately ripped
 07     [635e0824|b4e70e58] (0+3/3) Accurately ripped
 08     [8aaf6d75|90584073] (0+3/3) Accurately ripped
 09     [7028cb22|a24845d2] (0+3/3) Accurately ripped
 10     [0f6fa18c|bbd6a557] (0+3/3) Accurately ripped
 11     [0ca2e039|10bd7d70] (0+3/3) Accurately ripped
 12     [4de3ad1f|ea0352b6] (0+3/3) Accurately ripped
 13     [19cb46fa|0573d1bd] (0+3/3) Accurately ripped
 14     [6e30182d|96c9bdbe] (0+3/3) Accurately ripped
 15     [f62634bf|db08a102] (0+3/3) Accurately ripped

Track Peak [ CRC32  ] [W/O NULL] [  LOG   ]
 --  100.0 [2D3FD592] [CD47C556]           
 01   95.2 [CB02129D] [908AE05D]   CRC32   
 02  100.0 [2718F2A7] [F527D5C4]   CRC32   
 03  100.0 [254D7D55] [46DADA8B]   CRC32   
 04  100.0 [4D64AC9C] [320A9825]   CRC32   
 05  100.0 [8D3C8203] [B8507787]   CRC32   
 06   98.2 [E923CA03] [8E8D9F85]   CRC32   
 07  100.0 [0C0858C9] [18CCB917]   CRC32   
 08   96.7 [0228CB2D] [DE7F90F8]   CRC32   
 09   92.0 [35CF920D] [1922F1B3]   CRC32   
 10   93.0 [A9E36600] [DF2648E0]   CRC32   
 11   98.0 [0DF7FDCC] [066930B8]   CRC32   
 12   92.2 [B133AC49] [8A937C27]   CRC32   
 13  100.0 [E96F3382] [9A750BFB]   CRC32   
 14   95.2 [208B6398] [D84DF58A]   CRC32   
 15  100.0 [5FEE08A8] [69098725]   CRC32   



Create a new paste based on this one


Comments: