[ create a new paste ] login | about

Link: http://codepad.org/bzViu2D5    [ raw code | fork ]

Plain Text, pasted on Oct 12:
Exact Audio Copy V1.1 from 23. June 2015

EAC extraction logfile from 12. October 2018, 17:18

Steve Perry / Traces [FAN00305]

Used drive  : TSSTcorpDVD+-RW SU-208GB   Adapter: 1  ID: 0

Read mode               : Secure
Utilize accurate stream : Yes
Defeat audio cache      : Yes
Make use of C2 pointers : No

Read offset correction                      : 6
Overread into Lead-In and Lead-Out          : No
Fill up missing offset samples with silence : Yes
Delete leading and trailing silent blocks   : No
Null samples used in CRC calculations       : Yes
Used interface                              : Native Win32 interface for Win NT & 2000

Used output format : Internal WAV Routines
Sample format      : 44.100 Hz; 16 Bit; Stereo


TOC of the extracted CD

     Track |   Start  |  Length  | Start sector | End sector 
    ---------------------------------------------------------
        1  |  0:00.00 |  4:08.23 |         0    |    18622   
        2  |  4:08.23 |  4:06.14 |     18623    |    37086   
        3  |  8:14.37 |  4:23.33 |     37087    |    56844   
        4  | 12:37.70 |  4:29.19 |     56845    |    77038   
        5  | 17:07.14 |  4:06.55 |     77039    |    95543   
        6  | 21:13.69 |  3:57.47 |     95544    |   113365   
        7  | 25:11.41 |  4:07.73 |    113366    |   131963   
        8  | 29:19.39 |  4:03.09 |    131964    |   150197   
        9  | 33:22.48 |  2:59.70 |    150198    |   163692   
       10  | 36:22.43 |  3:56.46 |    163693    |   181438   
       11  | 40:19.14 |  4:04.32 |    181439    |   199770   
       12  | 44:23.46 |  4:19.39 |    199771    |   219234   
       13  | 48:43.10 |  4:13.02 |    219235    |   238211   
       14  | 52:56.12 |  3:19.63 |    238212    |   253199   
       15  | 56:16.00 |  2:59.71 |    253200    |   266695   


Range status and errors

Selected range

     Filename D:\Steve Perry - Traces [FAN00305].wav

     Peak level 100.0 %
     Extraction speed 4.1 X
     Range quality 100.0 %
     Test CRC 300CB28F
     Copy CRC 300CB28F
     Copy OK

No errors occurred

 
AccurateRip summary
 
Track  1  not present in database
Track  2  not present in database
Track  3  not present in database
Track  4  not present in database
Track  5  not present in database
Track  6  not present in database
Track  7  not present in database
Track  8  not present in database
Track  9  not present in database
Track 10  not present in database
Track 11  not present in database
Track 12  not present in database
Track 13  not present in database
Track 14  not present in database
Track 15  not present in database
 
None of the tracks are present in the AccurateRip database

End of status report

---- CUETools DB Plugin V2.1.6

[CTDB TOCID: .OqobKlYYdnuhDP2kUIjh7y8DIg-] found
Submit result: .OqobKlYYdnuhDP2kUIjh7y8DIg- has been confirmed
Track | CTDB Status
  1   | (33/33) Accurately ripped
  2   | (33/33) Accurately ripped
  3   | (33/33) Accurately ripped
  4   | (33/33) Accurately ripped
  5   | (33/33) Accurately ripped
  6   | (33/33) Accurately ripped
  7   | (33/33) Accurately ripped
  8   | (33/33) Accurately ripped
  9   | (33/33) Accurately ripped
 10   | (33/33) Accurately ripped
 11   | (33/33) Accurately ripped
 12   | (33/33) Accurately ripped
 13   | (32/33) Accurately ripped
 14   | (33/33) Accurately ripped
 15   | (33/33) Accurately ripped


==== Log checksum 3E1C04814034FDF08DECB1DD6326CF0B4448400AE78BAECC45302BFF1890EC87 ====



Create a new paste based on this one


Comments: