[ create a new paste ] login | about

Link: http://codepad.org/c1xLhpI6    [ raw code | fork ]

Plain Text, pasted on Feb 22:
[CUETools log; Date: 2/22/2017 9:37:14 AM; Version: 2.1.5]
[CTDB TOCID: 1JkjfBDmq7SXCXnMjl9uvpoEij8-] found.
Track | CTDB Status
  1   | (17/17) Accurately ripped
  2   | (17/17) Accurately ripped
  3   | (17/17) Accurately ripped
  4   | (17/17) Accurately ripped
  5   | (17/17) Accurately ripped
  6   | (17/17) Accurately ripped
  7   | (17/17) Accurately ripped
  8   | (17/17) Accurately ripped
  9   | (17/17) Accurately ripped
 10   | (17/17) Accurately ripped
 11   | (17/17) Accurately ripped
 12   | (17/17) Accurately ripped
[AccurateRip ID: 0017f410-00e95b14-a210440c] found.
Track   [  CRC   |   V2   ] Status
 01     [e41edb51|79be2851] (19+34/53) Accurately ripped
 02     [cc6ad8be|4249bc45] (19+34/53) Accurately ripped
 03     [4f4bfd21|60867350] (19+34/53) Accurately ripped
 04     [6e9d3702|e8db3eef] (20+34/54) Accurately ripped
 05     [d9da0219|34fea999] (20+34/54) Accurately ripped
 06     [9ceaa435|e4fafe36] (19+34/53) Accurately ripped
 07     [5f693e44|d963b90c] (19+34/53) Accurately ripped
 08     [a8e5dbdd|ab179bd5] (20+35/55) Accurately ripped
 09     [1f5e6fbe|66deef71] (19+35/54) Accurately ripped
 10     [88997ce7|ab21a7d8] (19+35/54) Accurately ripped
 11     [47930846|26b897aa] (19+35/54) Accurately ripped
 12     [ab80799f|37203053] (19+34/53) Accurately ripped

Track Peak [ CRC32  ] [W/O NULL] 
 --  100.0 [E9F28CF4] [1D10926E]           
 01   72.3 [0AD1C126] [054F6E6E]           
 02  100.0 [482E9CAE] [C8BE0965]           
 03   98.5 [AB9F2E73] [7E9BC52A]           
 04   98.9 [06054184] [39BF3DF7]           
 05  100.0 [48BB3027] [020DBE93]           
 06   97.5 [7F486821] [3754A91D]           
 07  100.0 [7A18AC26] [E1411B67]           
 08  100.0 [ABA231A7] [D0392872]           
 09  100.0 [0DDBD440] [16E81F08]           
 10   59.7 [0C7EE15B] [A84115C2]           
 11   90.3 [EB7915CA] [A7805E74]           
 12   86.1 [6DFFF9B2] [294398A5]           



Create a new paste based on this one


Comments: