[ create a new paste ] login | about

Link: http://codepad.org/c38zlW3J    [ raw code | fork ]

Plain Text, pasted on Aug 26:
EAC extraction logfile from 11. June 2007, 22:07 for CD
The Nat ''King'' Cole Trio / The Complete Capitol Recordings Of The Nat ''King'' Cole Trio - Disc 17

Used drive  : HL-DT-STDVD-ROM GDR8164B   Adapter: 0  ID: 1
Read mode   : Secure with NO C2, accurate stream, disable cache
Read offset correction : 102
Overread into Lead-In and Lead-Out : No

Used output format : C:\Programmi\Exact Audio Copy\flac.exe   (User Defined Encoder)
                     128 kBit/s
                     Additional command line options : -V -8 -T "artist=%a" -T "title=%t" -T "album=%g" -T "date=%y" -T "tracknumber=%n" -T "genre=%m" %s

Other options      : 
    Fill up missing offset samples with silence : Yes
    Delete leading and trailing silent blocks : No
    Native Win32 interface for Win NT & 2000


Track  1
     Filename D:\TORRENTS\Nat King Cole 3 - The Complete Capitol Recordings of the NKC Trio (1991) [FLAC] {Mosaic MD18 - 138}\CD 17\01 - Somebody Loves Me (A4).wav

     Pre-gap length  0:00:02.42

     Peak level 96.4 %
     Track quality 100.0 %
     Test CRC 45A0ED2B
     Copy CRC 45A0ED2B
     Copy OK

Track  2
     Filename D:\TORRENTS\Nat King Cole 3 - The Complete Capitol Recordings of the NKC Trio (1991) [FLAC] {Mosaic MD18 - 138}\CD 17\02 - Once In A Blue Moon (A4).wav

     Pre-gap length  0:00:02.46

     Peak level 95.5 %
     Track quality 99.9 %
     Test CRC 9D87472E
     Copy CRC 9D87472E
     Copy OK

Track  3
     Filename D:\TORRENTS\Nat King Cole 3 - The Complete Capitol Recordings of the NKC Trio (1991) [FLAC] {Mosaic MD18 - 138}\CD 17\03 - If I Should Lose You (A4).wav

     Pre-gap length  0:00:02.50

     Peak level 77.3 %
     Track quality 100.0 %
     Test CRC F52FAB88
     Copy CRC F52FAB88
     Copy OK

Track  4
     Filename D:\TORRENTS\Nat King Cole 3 - The Complete Capitol Recordings of the NKC Trio (1991) [FLAC] {Mosaic MD18 - 138}\CD 17\04 - Don't Let Your Eyes Go Shopping (For Your Heart) (B4).wav

     Pre-gap length  0:00:02.40

     Peak level 96.8 %
     Track quality 100.0 %
     Test CRC 10253CD5
     Copy CRC 10253CD5
     Copy OK

Track  5
     Filename D:\TORRENTS\Nat King Cole 3 - The Complete Capitol Recordings of the NKC Trio (1991) [FLAC] {Mosaic MD18 - 138}\CD 17\05 - Almost Like Being In Love (C4).wav

     Pre-gap length  0:00:02.44

     Peak level 96.8 %
     Track quality 100.0 %
     Test CRC 14114E35
     Copy CRC 14114E35
     Copy OK

Track  6
     Filename D:\TORRENTS\Nat King Cole 3 - The Complete Capitol Recordings of the NKC Trio (1991) [FLAC] {Mosaic MD18 - 138}\CD 17\06 - This Can't Be Love (C4).wav

     Pre-gap length  0:00:01.90

     Peak level 96.8 %
     Track quality 100.0 %
     Test CRC 9E4D5A3E
     Copy CRC 9E4D5A3E
     Copy OK

Track  7
     Filename D:\TORRENTS\Nat King Cole 3 - The Complete Capitol Recordings of the NKC Trio (1991) [FLAC] {Mosaic MD18 - 138}\CD 17\07 - Don't Hurt The Girl (C4).wav

     Pre-gap length  0:00:02.40

     Peak level 96.3 %
     Track quality 100.0 %
     Test CRC DA9F2E44
     Copy CRC DA9F2E44
     Copy OK

Track  8
     Filename D:\TORRENTS\Nat King Cole 3 - The Complete Capitol Recordings of the NKC Trio (1991) [FLAC] {Mosaic MD18 - 138}\CD 17\08 - The Christmas Song (D4).wav

     Pre-gap length  0:00:02.13

     Peak level 96.8 %
     Track quality 100.0 %
     Test CRC 464537B5
     Copy CRC 464537B5
     Copy OK

Track  9
     Filename D:\TORRENTS\Nat King Cole 3 - The Complete Capitol Recordings of the NKC Trio (1991) [FLAC] {Mosaic MD18 - 138}\CD 17\09 - Don't Blame Me (E4).wav

     Pre-gap length  0:00:01.97

     Peak level 96.8 %
     Track quality 100.0 %
     Test CRC CEBB7BE4
     Copy CRC CEBB7BE4
     Copy OK

Track 10
     Filename D:\TORRENTS\Nat King Cole 3 - The Complete Capitol Recordings of the NKC Trio (1991) [FLAC] {Mosaic MD18 - 138}\CD 17\10 - It Could Happen To You (E4).wav

     Pre-gap length  0:00:02.09

     Peak level 96.8 %
     Track quality 100.0 %
     Test CRC E68E17D8
     Copy CRC E68E17D8
     Copy OK

Track 11
     Filename D:\TORRENTS\Nat King Cole 3 - The Complete Capitol Recordings of the NKC Trio (1991) [FLAC] {Mosaic MD18 - 138}\CD 17\11 - I Surrender Dear (Alt.) (E4).wav

     Pre-gap length  0:00:01.60

     Peak level 87.6 %
     Track quality 100.0 %
     Test CRC 652429B7
     Copy CRC 652429B7
     Copy OK

Track 12
     Filename D:\TORRENTS\Nat King Cole 3 - The Complete Capitol Recordings of the NKC Trio (1991) [FLAC] {Mosaic MD18 - 138}\CD 17\12 - I Surrender Dear (E4).wav

     Pre-gap length  0:00:01.80

     Peak level 96.8 %
     Track quality 100.0 %
     Test CRC 2753B14D
     Copy CRC 2753B14D
     Copy OK

Track 13
     Filename D:\TORRENTS\Nat King Cole 3 - The Complete Capitol Recordings of the NKC Trio (1991) [FLAC] {Mosaic MD18 - 138}\CD 17\13 - Little Girl (E4).wav

     Pre-gap length  0:00:02.40

     Peak level 94.3 %
     Track quality 100.0 %
     Test CRC F6695386
     Copy CRC F6695386
     Copy OK

Track 14
     Filename D:\TORRENTS\Nat King Cole 3 - The Complete Capitol Recordings of the NKC Trio (1991) [FLAC] {Mosaic MD18 - 138}\CD 17\14 - You Can Depend On Me (F4).wav

     Pre-gap length  0:00:02.53

     Peak level 96.8 %
     Track quality 100.0 %
     Test CRC A89B669B
     Copy CRC A89B669B
     Copy OK

Track 15
     Filename D:\TORRENTS\Nat King Cole 3 - The Complete Capitol Recordings of the NKC Trio (1991) [FLAC] {Mosaic MD18 - 138}\CD 17\15 - Candy (F4).wav

     Pre-gap length  0:00:02.24

     Peak level 96.8 %
     Track quality 100.0 %
     Test CRC 8B7D8CAD
     Copy CRC 8B7D8CAD
     Copy OK

Track 16
     Filename D:\TORRENTS\Nat King Cole 3 - The Complete Capitol Recordings of the NKC Trio (1991) [FLAC] {Mosaic MD18 - 138}\CD 17\16 - Sweet Lorraine (F4).wav

     Pre-gap length  0:00:02.70

     Peak level 96.8 %
     Track quality 100.0 %
     Test CRC F72D6569
     Copy CRC F72D6569
     Copy OK

Track 17
     Filename D:\TORRENTS\Nat King Cole 3 - The Complete Capitol Recordings of the NKC Trio (1991) [FLAC] {Mosaic MD18 - 138}\CD 17\17 - It's Only A Paper Moon (F4).wav

     Pre-gap length  0:00:02.29

     Peak level 92.0 %
     Track quality 100.0 %
     Test CRC 3F85F3E0
     Copy CRC 3F85F3E0
     Copy OK

Track 18
     Filename D:\TORRENTS\Nat King Cole 3 - The Complete Capitol Recordings of the NKC Trio (1991) [FLAC] {Mosaic MD18 - 138}\CD 17\18 - (Get Your Kicks On) Route 66 (F4).wav

     Pre-gap length  0:00:02.10

     Peak level 96.8 %
     Track quality 100.0 %
     Test CRC 960AFAEE
     Copy CRC 960AFAEE
     Copy OK

Track 19
     Filename D:\TORRENTS\Nat King Cole 3 - The Complete Capitol Recordings of the NKC Trio (1991) [FLAC] {Mosaic MD18 - 138}\CD 17\19 - Don't Let It Go To Your Head (G4).wav

     Pre-gap length  0:00:02.20

     Peak level 96.8 %
     Track quality 100.0 %
     Test CRC EDC6CC9A
     Copy CRC EDC6CC9A
     Copy OK

Track 20
     Filename D:\TORRENTS\Nat King Cole 3 - The Complete Capitol Recordings of the NKC Trio (1991) [FLAC] {Mosaic MD18 - 138}\CD 17\20 - You're Lookin' At Me (G4).wav

     Pre-gap length  0:00:02.46

     Peak level 88.3 %
     Track quality 100.0 %
     Test CRC BB27ECBE
     Copy CRC BB27ECBE
     Copy OK

No errors occured


End of status report



Create a new paste based on this one


Comments: