[ create a new paste ] login | about

Link: http://codepad.org/c9FQXwMC    [ raw code | fork ]

Plain Text, pasted on Jul 27:
[CUETools log; Date: 7/27/2016 5:46:11 PM; Version: 2.1.5]
[CTDB TOCID: 6BLHndqo_U_vVgcPitGPMUu4cMU-] found.
Track | CTDB Status
  1   | (1/1) Accurately ripped
  2   | (1/1) Accurately ripped
  3   | (1/1) Accurately ripped
  4   | (1/1) Accurately ripped
  5   | (1/1) Accurately ripped
  6   | (1/1) Accurately ripped
  7   | (1/1) Accurately ripped
  8   | (1/1) Accurately ripped
  9   | (1/1) Accurately ripped
 10   | (1/1) Accurately ripped
 11   | (1/1) Accurately ripped
 12   | (1/1) Accurately ripped
 13   | (1/1) Accurately ripped
 14   | (1/1) Accurately ripped
 15   | (1/1) Accurately ripped
 16   | (1/1) Accurately ripped
 17   | (1/1) Accurately ripped
 18   | (1/1) Accurately ripped
 19   | (1/1) Accurately ripped
 20   | (1/1) Accurately ripped
 21   | (1/1) Accurately ripped
[AccurateRip ID: 002f3a14-02d10cc2-3e0e7f15] found.
Track   [  CRC   |   V2   ] Status
 01     [305ea75a|6aee82a2] (0+1/1) Accurately ripped
 02     [9af004ad|4f8ac196] (0+1/1) Accurately ripped
 03     [e6a831fe|381a5863] (0+1/1) Accurately ripped
 04     [a67a9a1c|2dc88650] (0+1/1) Accurately ripped
 05     [b6bf69d5|14a2e724] (0+1/1) Accurately ripped
 06     [6945bed1|ed6f141e] (0+1/1) Accurately ripped
 07     [7a2deeac|68812d35] (0+1/1) Accurately ripped
 08     [9a99e876|7c18ed1d] (0+1/1) Accurately ripped
 09     [5b53adf4|7ea52efd] (0+1/1) Accurately ripped
 10     [c075cee3|dde1e008] (0+1/1) Accurately ripped
 11     [1c48534d|f464d31a] (0+1/1) Accurately ripped
 12     [ddf8bb8e|b92b5ff8] (0+1/1) Accurately ripped
 13     [25d698bb|3c37093d] (0+1/1) Accurately ripped
 14     [22d51e9f|1e6ec71a] (0+1/1) Accurately ripped
 15     [68966e38|1d8e6e70] (0+1/1) Accurately ripped
 16     [3a979bd9|8dc01bed] (0+1/1) Accurately ripped
 17     [3fb8235c|c09fc347] (0+1/1) Accurately ripped
 18     [a2057d7d|3366d74b] (0+1/1) Accurately ripped
 19     [72228406|32887833] (0+1/1) Accurately ripped
 20     [bc36272d|d8aeb9ea] (0+1/1) Accurately ripped
 21     [0620c1e8|e143eadb] (0+1/1) Accurately ripped

Track Peak [ CRC32  ] [W/O NULL] [  LOG   ]
 --  100.0 [F4FDF5DD] [CD428093]   CRC32   
 01   79.4 [0789EA34] [96E5A512]           
 02   98.7 [DB8EB7BB] [899F1BA2]           
 03   98.2 [C534B277] [9DBDF41A]           
 04   99.0 [558C3284] [211FB99A]           
 05  100.0 [7C88DD4B] [6C84166D]           
 06   99.0 [72D7C45B] [855E6354]           
 07   76.3 [6166D2A6] [882E1516]           
 08   99.0 [0E5DCD1C] [CFC837DF]           
 09   97.0 [A33D4499] [DA00D98B]           
 10   99.0 [691FD4B3] [5BDBB8E0]           
 11   98.2 [C02F6A40] [6B7B299D]           
 12   98.5 [21D8C193] [93081E47]           
 13   93.3 [68C2B100] [ED3ADEBC]           
 14   79.2 [BEEA9D6A] [F927CF38]           
 15   91.2 [F73E0D33] [2BE1A970]           
 16   94.8 [EEA65117] [896DEFE5]           
 17   99.0 [F355ECA5] [07B45312]           
 18   85.6 [8CE0B360] [CF305DA1]           
 19   82.3 [FBD0A840] [2663453E]           
 20   99.0 [70A40A4D] [FE842E56]           
 21   70.0 [0A46F250] [E940C5A3]           



Create a new paste based on this one


Comments: