[ create a new paste ] login | about

Link: http://codepad.org/cAZ6vwIR    [ raw code | fork ]

Plain Text, pasted on Feb 3:
Chet Baker In New York (1958) [2004 Remaster]
---------------------------------------------

foobar2000 1.6 / Dynamic Range Meter 1.1.1
log date: 2021-02-03 18:57:54

--------------------------------------------------------------------------------
Analyzed: Chet Baker / Chet Baker In New York
--------------------------------------------------------------------------------

DR         Peak         RMS     Duration Track
--------------------------------------------------------------------------------
DR12      -4.14 dB   -18.89 dB      6:53 01-Fair Weather
DR11      -4.39 dB   -20.20 dB      7:53 02-Polka Dots and Moonbeams
DR13      -3.40 dB   -19.53 dB      9:45 03-Hotel 49
DR12      -5.04 dB   -20.43 dB      5:48 04-Solar
DR11      -6.43 dB   -20.62 dB      7:29 05-Blue Thoughts
DR11      -4.94 dB   -19.16 dB      6:49 06-When Lights Are Low
DR14      -4.51 dB   -22.51 dB      6:26 07-Soft Winds
--------------------------------------------------------------------------------

Number of tracks:  7
Official DR value: DR12

Samplerate:        2822400 Hz / PCM Samplerate: 176400 Hz
Channels:          2
Bits per sample:   1
Bitrate:           5645 kbps
Codec:             DSD64
================================================================================

foobar2000 1.6 / Dynamic Range Meter 1.1.1
log date: 2021-02-03 19:03:18

--------------------------------------------------------------------------------
Analyzed: Chet Baker / Chet Baker In New York
--------------------------------------------------------------------------------

DR         Peak         RMS     Duration Track
--------------------------------------------------------------------------------
DR12      -0.72 dB   -15.50 dB      7:00 01-Fair Weather
DR11      -1.12 dB   -16.79 dB      7:56 02-Polka Dots and Moonbeams
DR13      -0.01 dB   -16.10 dB      9:48 03-Hotel 49
DR12      -1.70 dB   -17.06 dB      5:53 04-Solar
DR11      -3.10 dB   -17.21 dB      7:33 05-Blue Thoughts
DR11      -1.56 dB   -15.75 dB      6:53 06-When Lights Are Low
DR14      -1.12 dB   -19.15 dB      6:26 07-Soft Winds
--------------------------------------------------------------------------------

Number of tracks:  7
Official DR value: DR12

Samplerate:        88200 Hz
Channels:          2
Bits per sample:   24
Bitrate:           2589 kbps
Codec:             FLAC
================================================================================



Chet (1959) [2002 AP Remaster]
------------------------------

foobar2000 1.5 / Dynamic Range Meter 1.1.1
log date: 2020-01-11 18:00:08

--------------------------------------------------------------------------------
Analyzed: Chet Baker / Chet
--------------------------------------------------------------------------------

DR         Peak         RMS     Duration Track
--------------------------------------------------------------------------------
DR12      -6.34 dB   -23.97 dB      6:50 01-Alone Together
DR13      -7.05 dB   -25.57 dB      3:35 02-How High The Moon
DR13      -8.89 dB   -26.11 dB      4:39 03-It Never Entered My Mind
DR11      -6.79 dB   -23.98 dB      5:15 04-'Tis Autumn
DR11      -6.47 dB   -23.20 dB      5:15 05-If You Could See Me Now
DR12      -9.48 dB   -27.82 dB      3:03 06-September Song
DR12      -7.10 dB   -24.71 dB      4:30 07-You'd Be So Nice To Come Home To
DR11      -4.94 dB   -20.51 dB      4:32 08-Time On My Hands (You In My Arms)
DR11      -6.03 dB   -22.28 dB      4:05 09-You and the Night and the Music
DR13      -4.73 dB   -23.14 dB      9:13 10-Early Morning Mood
--------------------------------------------------------------------------------

Number of tracks:  10
Official DR value: DR12

Samplerate:        2822400 Hz / PCM Samplerate: 44100 Hz
Channels:          2
Bits per sample:   1
Bitrate:           5645 kbps
Codec:             DSD64
================================================================================

foobar2000 1.5 / Dynamic Range Meter 1.1.1
log date: 2020-01-11 17:59:01

--------------------------------------------------------------------------------
Analyzed: Chet Baker / Chet
--------------------------------------------------------------------------------

DR         Peak         RMS     Duration Track
--------------------------------------------------------------------------------
DR12      -1.61 dB   -19.33 dB      6:55 01-Alone Together
DR13      -2.30 dB   -20.93 dB      3:37 02-How High The Moon
DR13      -4.18 dB   -21.45 dB      4:40 03-It Never Entered My Mind
DR11      -2.08 dB   -19.33 dB      5:18 04-'Tis Autumn
DR11      -1.78 dB   -18.53 dB      5:17 05-If You Could See Me Now
DR12      -4.79 dB   -23.12 dB      3:06 06-September Song
DR12      -2.39 dB   -20.01 dB      4:32 07-You'd Be So Nice To Come Home To
DR11      -0.23 dB   -15.81 dB      4:33 08-Time On My Hands (You In My Arms)
DR11      -1.33 dB   -17.57 dB      4:06 09-You and the Night and the Music
DR13      -0.01 dB   -18.44 dB      9:13 10-Early Morning Mood
--------------------------------------------------------------------------------

Number of tracks:  10
Official DR value: DR12

Samplerate:        88200 Hz
Channels:          2
Bits per sample:   24
Bitrate:           2557 kbps
Codec:             FLAC
================================================================================



Baker's Holiday (1965) [2004 Remaster]
--------------------------------------

foobar2000 1.6 / Dynamic Range Meter 1.1.1
log date: 2021-02-03 18:58:35

--------------------------------------------------------------------------------
Analyzed: Chet Baker / Baker's Holiday
--------------------------------------------------------------------------------

DR         Peak         RMS     Duration Track
--------------------------------------------------------------------------------
DR10      -6.23 dB   -20.61 dB      3:08 01-Trav'lin' Light
DR10      -5.82 dB   -19.51 dB      3:19 02-Easy Living
DR10      -6.37 dB   -20.48 dB      3:14 03-That Ole Devil Called Love
DR11      -5.78 dB   -19.91 dB      2:57 04-You're My Thrill
DR11      -6.23 dB   -20.59 dB      3:20 05-Crazy She Calls Me
DR11      -6.45 dB   -19.81 dB      2:53 06-When Your Lover Has Gone
DR11      -6.07 dB   -20.24 dB      3:35 07-Mean To Me
DR11      -6.18 dB   -19.90 dB      3:29 08-These Foolish Things (Remind Me Of You)
DR10      -8.84 dB   -21.41 dB      2:32 09-There Is No Greater Love
DR11      -7.80 dB   -21.21 dB      3:27 10-Don't Explain
--------------------------------------------------------------------------------

Number of tracks:  10
Official DR value: DR11

Samplerate:        2822400 Hz / PCM Samplerate: 176400 Hz
Channels:          2
Bits per sample:   1
Bitrate:           5645 kbps
Codec:             DSD64
================================================================================

foobar2000 1.6 / Dynamic Range Meter 1.1.1
log date: 2021-02-03 19:09:58

--------------------------------------------------------------------------------
Analyzed: Chet Baker / Baker's Holiday
--------------------------------------------------------------------------------

DR         Peak         RMS     Duration Track
--------------------------------------------------------------------------------
DR10      -0.36 dB   -14.74 dB      3:11 01-Trav'lin' Light
DR10      -0.05 dB   -13.57 dB      3:21 02-Easy Living
DR10      -0.56 dB   -14.61 dB      3:16 03-That Ole Devil Called Love
DR10      -0.01 dB   -13.97 dB      2:58 04-You're My Thrill
DR10      -0.42 dB   -14.65 dB      3:20 05-Crazy She Calls Me
DR11      -0.59 dB   -13.94 dB      2:54 06-When Your Lover Has Gone
DR11      -0.13 dB   -14.30 dB      3:36 07-Mean To Me
DR11      -0.32 dB   -14.02 dB      3:31 08-These Foolish Things (Remind Me Of You)
DR10      -3.07 dB   -15.56 dB      2:34 09-There Is No Greater Love
DR11      -2.03 dB   -15.27 dB      3:27 10-Don't Explain
--------------------------------------------------------------------------------

Number of tracks:  10
Official DR value: DR10

Samplerate:        88200 Hz
Channels:          2
Bits per sample:   24
Bitrate:           2559 kbps
Codec:             FLAC
================================================================================



Supreme Jazz (2006)
-------------------

foobar2000 1.6 / Dynamic Range Meter 1.1.1
log date: 2021-02-03 17:53:12

--------------------------------------------------------------------------------
Analyzed: ? / ?
--------------------------------------------------------------------------------

DR         Peak         RMS     Duration Track
--------------------------------------------------------------------------------
DR12      -5.61 dB   -22.56 dB      4:12 01-The Half Dozens
DR12      -5.37 dB   -23.12 dB      4:53 02-Stella By Starlight
DR11      -5.41 dB   -22.08 dB      2:40 03-Look For The Silver Lining
DR12      -5.72 dB   -23.01 dB      3:06 04-But Not For Me
DR10      -5.80 dB   -20.62 dB      3:01 05-There Will Never Be Another You
DR14      -5.79 dB   -27.62 dB      5:21 06-Extra Mild
DR13      -5.65 dB   -26.93 dB      4:20 07-A Night On Bop
DR14      -5.81 dB   -27.06 dB      6:15 08-Down
DR14      -5.70 dB   -25.36 dB      5:40 09-Taboo
DR12      -5.80 dB   -23.74 dB      3:10 10-I Can´t Get Started 
DR13      -5.65 dB   -25.17 dB      5:16 11-To Mickey´s Memory
DR14      -5.29 dB   -25.43 dB      5:37 12-Lucius Lu
DR12      -5.75 dB   -23.76 dB      4:58 13-Jumpin´Off A Clef
DR12      -5.67 dB   -23.22 dB      4:37 14-Music To Dance By
--------------------------------------------------------------------------------

Number of tracks:  14
Official DR value: DR12

Samplerate:        2822400 Hz / PCM Samplerate: 176400 Hz
Channels:          6
Bits per sample:   1
Bitrate:           16934 kbps
Codec:             DST64
================================================================================

--------------------------------------------------------------------------------
Analyzed: ? / ?
--------------------------------------------------------------------------------

DR         Peak         RMS     Duration Track
--------------------------------------------------------------------------------
DR12      -5.64 dB   -19.09 dB      4:12 01-The Half Dozens
DR12      -5.55 dB   -20.37 dB      4:53 02-Stella By Starlight
DR10      -5.51 dB   -18.85 dB      2:40 03-Look For The Silver Lining
DR12      -5.82 dB   -19.87 dB      3:06 04-But Not For Me
DR9       -5.46 dB   -17.61 dB      3:01 05-There Will Never Be Another You
DR16      -5.44 dB   -24.39 dB      5:21 06-Extra Mild
DR13      -5.70 dB   -24.29 dB      4:20 07-A Night On Bop
DR16      -5.35 dB   -24.24 dB      6:15 08-Down
DR15      -5.41 dB   -22.30 dB      5:40 09-Taboo
DR12      -5.44 dB   -20.51 dB      3:10 10-I Can´t Get Started 
DR12      -5.50 dB   -21.51 dB      5:16 11-To Mickey´s Memory
DR14      -5.33 dB   -22.37 dB      5:37 12-Lucius Lu
DR12      -5.89 dB   -20.02 dB      4:58 13-Jumpin´Off A Clef
DR12      -5.60 dB   -20.34 dB      4:37 14-Music To Dance By
--------------------------------------------------------------------------------

Number of tracks:  14
Official DR value: DR13

Samplerate:        2822400 Hz / PCM Samplerate: 176400 Hz
Channels:          2
Bits per sample:   1
Bitrate:           5645 kbps
Codec:             DST64
================================================================================

foobar2000 1.6 / Dynamic Range Meter 1.1.1
log date: 2021-02-03 19:04:04

--------------------------------------------------------------------------------
Analyzed: Chet Baker / Supreme Jazz
--------------------------------------------------------------------------------

DR         Peak         RMS     Duration Track
--------------------------------------------------------------------------------
DR11      -0.15 dB   -16.80 dB      4:12 01-The Half Dozens
DR11      -0.15 dB   -17.12 dB      4:53 02-Stella By Starlight
DR11      -0.15 dB   -16.42 dB      2:40 03-Look For The Silver Lining
DR11      -0.15 dB   -17.41 dB      3:06 04-But Not For Me
DR9       -0.15 dB   -14.87 dB      3:01 05-There Will Never Be Another You
DR14      -0.13 dB   -22.39 dB      5:21 06-Extra Mild
DR12      -0.23 dB   -21.55 dB      4:20 07-A Night On Bop
DR14      -0.13 dB   -21.70 dB      6:15 08-Down
DR14      -0.01 dB   -19.96 dB      5:40 09-Taboo
DR11      -0.15 dB   -18.15 dB      3:10 10-I Can┤t Get Started 
DR12      -0.16 dB   -19.70 dB      5:16 11-To Mickey┤s Memory
DR13      -0.16 dB   -19.96 dB      5:37 12-Lucius Lu
DR11      -0.15 dB   -18.12 dB      4:58 13-Jumpin┤Off A Clef
DR12      -0.12 dB   -17.64 dB      4:37 14-Music To Dance By
--------------------------------------------------------------------------------

Number of tracks:  14
Official DR value: DR12

Samplerate:        88200 Hz
Channels:          6
Bits per sample:   24
Bitrate:           7732 kbps
Codec:             FLAC
================================================================================

foobar2000 1.6 / Dynamic Range Meter 1.1.1
log date: 2021-02-03 19:04:19

--------------------------------------------------------------------------------
Analyzed: Chet Baker / Supreme Jazz
--------------------------------------------------------------------------------

DR         Peak         RMS     Duration Track
--------------------------------------------------------------------------------
DR12      -0.08 dB   -13.31 dB      4:12 01-The Half Dozens
DR12      -0.07 dB   -14.65 dB      4:53 02-Stella By Starlight
DR10      -0.09 dB   -13.07 dB      2:40 03-Look For The Silver Lining
DR11      -0.07 dB   -14.13 dB      3:06 04-But Not For Me
DR9       -0.07 dB   -11.80 dB      3:01 05-There Will Never Be Another You
DR16      -0.05 dB   -18.94 dB      5:21 06-Extra Mild
DR13      -0.08 dB   -18.83 dB      4:20 07-A Night On Bop
DR16      -0.06 dB   -18.77 dB      6:15 08-Down
DR15      -0.01 dB   -16.67 dB      5:40 09-Taboo
DR11      -0.08 dB   -14.78 dB      3:10 10-I Can┤t Get Started 
DR12      -0.07 dB   -15.83 dB      5:16 11-To Mickey┤s Memory
DR13      -0.08 dB   -16.74 dB      5:37 12-Lucius Lu
DR11      -0.09 dB   -14.28 dB      4:58 13-Jumpin┤Off A Clef
DR12      -0.10 dB   -14.61 dB      4:37 14-Music To Dance By
--------------------------------------------------------------------------------

Number of tracks:  14
Official DR value: DR12

Samplerate:        88200 Hz
Channels:          2
Bits per sample:   24
Bitrate:           2804 kbps
Codec:             FLAC
================================================================================





Create a new paste based on this one


Comments: