[ create a new paste ] login | about

Link: http://codepad.org/cEt6UsI7    [ raw code | fork ]

Plain Text, pasted on Jun 21:
EAC extraction logfile from 11. May 2006, 9:33 for CD
The Band / Stage Fright (DCC Gold Disc)

Used drive  : PIONEER DVD-RW  DVR-109   Adapter: 0  ID: 1
Read mode   : Secure with NO C2, accurate stream, disable cache
Read offset correction : 48
Overread into Lead-In and Lead-Out : No

Used output format : C:\Program Files\FLAC\flac.exe   (User Defined Encoder)
                     320 kBit/s
                     Additional command line options : -8 -V -T "artist=%a" -T "title=%t" -T "album=%g" -T "date=%y" -T "tracknumber=%n" -T "genre=%m" %s

Other options      : 
    Fill up missing offset samples with silence : Yes
    Delete leading and trailing silent blocks : No
    Installed external ASPI interface


Track  1
     Filename E:\Music A-M\The Band - Stage Fright (1970) [FLAC] (DCC Gold Disc GZS-1061)\01 - Strawberry Wine.wav

     Pre-gap length  0:00:02.00

     Peak level 100.0 %
     Track quality 100.0 %
     Test CRC 4FD11972
     Copy CRC 4FD11972
     Copy OK

Track  2
     Filename E:\Music A-M\The Band - Stage Fright (1970) [FLAC] (DCC Gold Disc GZS-1061)\02 - Sleeping.wav

     Pre-gap length  0:00:01.40

     Peak level 98.0 %
     Track quality 100.0 %
     Test CRC BC701E88
     Copy CRC BC701E88
     Copy OK

Track  3
     Filename E:\Music A-M\The Band - Stage Fright (1970) [FLAC] (DCC Gold Disc GZS-1061)\03 - Time To Kill.wav

     Pre-gap length  0:00:00.40

     Peak level 99.9 %
     Track quality 100.0 %
     Test CRC 3DD2B83C
     Copy CRC 3DD2B83C
     Copy OK

Track  4
     Filename E:\Music A-M\The Band - Stage Fright (1970) [FLAC] (DCC Gold Disc GZS-1061)\04 - Just Another Whistle Stop.wav

     Pre-gap length  0:00:01.10

     Peak level 78.7 %
     Track quality 100.0 %
     Test CRC 6A063702
     Copy CRC 6A063702
     Copy OK

Track  5
     Filename E:\Music A-M\The Band - Stage Fright (1970) [FLAC] (DCC Gold Disc GZS-1061)\05 - All La Glory.wav

     Pre-gap length  0:00:00.28

     Peak level 75.0 %
     Track quality 100.0 %
     Test CRC DC34112F
     Copy CRC DC34112F
     Copy OK

Track  6
     Filename E:\Music A-M\The Band - Stage Fright (1970) [FLAC] (DCC Gold Disc GZS-1061)\06 - The Shape I'm In.wav

     Pre-gap length  0:00:00.48

     Peak level 100.0 %
     Track quality 100.0 %
     Test CRC 8C1B1444
     Copy CRC 8C1B1444
     Copy OK

Track  7
     Filename E:\Music A-M\The Band - Stage Fright (1970) [FLAC] (DCC Gold Disc GZS-1061)\07 - The W.S - Walcott Medicine Show.wav

     Pre-gap length  0:00:00.40

     Peak level 95.6 %
     Track quality 100.0 %
     Test CRC ACF46678
     Copy CRC ACF46678
     Copy OK

Track  8
     Filename E:\Music A-M\The Band - Stage Fright (1970) [FLAC] (DCC Gold Disc GZS-1061)\08 - Daniel And The Sacred Harp.wav

     Pre-gap length  0:00:00.32

     Peak level 95.6 %
     Track quality 100.0 %
     Test CRC 29E1EC44
     Copy CRC 29E1EC44
     Copy OK

Track  9
     Filename E:\Music A-M\The Band - Stage Fright (1970) [FLAC] (DCC Gold Disc GZS-1061)\09 - Stage Fright.wav

     Pre-gap length  0:00:00.36

     Peak level 100.0 %
     Track quality 99.9 %
     Test CRC F01AF471
     Copy CRC F01AF471
     Copy OK

Track 10
     Filename E:\Music A-M\The Band - Stage Fright (1970) [FLAC] (DCC Gold Disc GZS-1061)\10 - The Rumor.wav

     Pre-gap length  0:00:00.70

     Peak level 95.7 %
     Track quality 100.0 %
     Test CRC 45CA0BD9
     Copy CRC 45CA0BD9
     Copy OK

No errors occured


End of status report



Create a new paste based on this one


Comments: