[ create a new paste ] login | about

Link: http://codepad.org/cFECsFs6    [ raw code | fork ]

Plain Text, pasted on Oct 13:
foobar2000 1.6 / Dynamic Range Meter 1.1.1
log date: 2020-10-13 02:12:04

--------------------------------------------------------------------------------
Analyzed: John Lennon / GIMME SOME TRUTH.
--------------------------------------------------------------------------------

DR         Peak         RMS     Duration Track
--------------------------------------------------------------------------------
DR6       -0.20 dB    -8.49 dB      3:22 01-Instant Karma! (We All Shine On) (Ultimate Mix)
DR7       -0.20 dB    -8.31 dB      5:01 02-Cold Turkey (Ultimate Mix)
DR9       -0.20 dB   -12.18 dB      3:47 03-Working Class Hero (Ultimate Mix)
DR9       -0.20 dB   -12.81 dB      2:52 04-Isolation (Ultimate Mix)
DR9       -0.20 dB   -12.17 dB      3:21 05-Love (Ultimate Mix)
DR9       -0.20 dB   -10.98 dB      4:11 06-God (Ultimate Mix)
DR6       -0.20 dB    -8.06 dB      3:23 07-Power To The People (Ultimate Mix)
DR9       -0.20 dB   -10.90 dB      3:02 08-Imagine (Ultimate Mix)
DR9       -0.20 dB   -10.91 dB      4:10 09-Jealous Guy (Ultimate Mix)
DR7       -0.20 dB    -8.55 dB      3:15 10-Gimme Some Truth (Ultimate Mix)
DR11      -0.40 dB   -13.37 dB      2:43 11-Oh My Love (Ultimate Mix)
DR8       -0.20 dB    -9.40 dB      5:35 12-How Do You Sleep? (Ultimate Mix)
DR8       -0.21 dB    -9.75 dB      4:16 13-Oh Yoko! (Ultimate Mix)
DR10      -0.20 dB   -12.63 dB      4:05 14-Angela (Ultimate Mix)
DR10      -0.20 dB   -11.05 dB      4:17 15-Come Together (Live / Ultimate Mix)
DR9       -0.20 dB   -11.35 dB      4:11 16-Mind Games (Ultimate Mix)
DR10      -0.20 dB   -12.51 dB      3:21 17-Out The Blue (Ultimate Mix)
DR8       -0.20 dB   -10.40 dB      3:50 18-I Know (I Know) (Ultimate Mix)
DR11      -0.20 dB   -12.08 dB      3:27 19-Whatever Gets You Thru The Night (Ultimate Mix)
DR11      -0.21 dB   -12.38 dB      4:38 20-Bless You (Ultimate Mix)
DR10      -0.20 dB   -12.29 dB      4:46 21-#9 Dream (Ultimate Mix)
DR11      -0.21 dB   -13.48 dB      4:39 22-Steel And Glass (Ultimate Mix)
DR11      -0.35 dB   -13.43 dB      3:31 23-Stand By Me (Ultimate Mix)
DR9       -0.20 dB   -10.31 dB      3:41 24-Angel Baby (Ultimate Mix)
DR10      -0.20 dB   -12.52 dB      3:55 25-(Just Like) Starting Over (Ultimate Mix)
DR9       -0.20 dB   -10.40 dB      3:59 26-I'm Losing You (Ultimate Mix)
DR12      -0.23 dB   -15.27 dB      4:02 27-Beautiful Boy (Darling Boy) (Ultimate Mix)
DR10      -0.20 dB   -12.45 dB      3:33 28-Watching The Wheels (Ultimate Mix)
DR12      -0.21 dB   -13.17 dB      3:32 29-Woman (Ultimate Mix)
DR11      -0.20 dB   -12.14 dB      2:34 30-Dear Yoko (Ultimate Mix)
DR9       -0.92 dB   -10.73 dB      3:18 31-Every Man Has A Woman Who Loves Him (Ultimate Mix)
DR12      -0.20 dB   -14.10 dB      3:34 32-Nobody Told Me (Ultimate Mix)
DR11      -0.20 dB   -12.19 dB      4:05 33-I'm Stepping Out (Ultimate Mix)
DR9       -2.15 dB   -14.68 dB      3:21 34-Grow Old With Me (Ultimate Mix)
DR9       -0.20 dB   -11.07 dB      3:33 35-Happy Xmas (War Is Over) (Ultimate Mix)
DR11      -0.20 dB   -12.52 dB      4:54 36-Give Peace A Chance (Ultimate Mix)
--------------------------------------------------------------------------------

Number of tracks:  36
Official DR value: DR9

Samplerate:        96000 Hz
Channels:          2
Bits per sample:   24
Bitrate:           3023 kbps
Codec:             FLAC
================================================================================




Create a new paste based on this one


Comments: