[ create a new paste ] login | about

Link: http://codepad.org/cFjoBXkf    [ raw code | fork ]

Plain Text, pasted on Oct 16:
foobar2000 1.4.6 / Dynamic Range Meter 1.1.1
log date: 2019-10-16 11:24:52

--------------------------------------------------------------------------------
Analyzed: Wilco / Ode to Joy
--------------------------------------------------------------------------------

DR         Peak         RMS     Duration Track
--------------------------------------------------------------------------------
DR8       -0.10 dB   -10.30 dB      4:10 01-Bright Leaves
DR6       -0.10 dB    -8.23 dB      3:22 02-Before Us
DR8       -0.10 dB   -10.04 dB      3:43 03-One and a Half Stars
DR7       -0.01 dB    -9.56 dB      5:50 04-Quiet Amplifier
DR7       -0.10 dB    -8.70 dB      3:00 05-Everyone Hides
DR8       -0.10 dB    -9.58 dB      3:12 06-White Wooden Cross
DR8       -0.10 dB    -9.24 dB      3:03 07-Citizens
DR8       -0.10 dB   -10.23 dB      4:57 08-We Were Lucky (Atmosphere)
DR8       -0.10 dB   -10.17 dB      3:33 09-Love Is Everywhere (Beware)
DR9       -0.10 dB   -11.79 dB      3:59 10-Hold Me Anyway
DR8       -0.10 dB    -9.47 dB      3:46 11-An Empty Corner
--------------------------------------------------------------------------------

Number of tracks:  11
Official DR value: DR8

Samplerate:        96000 Hz
Channels:          2
Bits per sample:   24
Bitrate:           2931 kbps
Codec:             FLAC
================================================================================




Create a new paste based on this one


Comments: