[ create a new paste ] login | about

Link: http://codepad.org/cHkJRe9H    [ raw code | fork ]

Plain Text, pasted on Apr 17:
foobar2000 1.3.17 / Dynamic Range Meter 1.1.1
log date: 2018-04-17 11:33:13

--------------------------------------------------------------------------------
Analyzed: Rickie Lee Jones / It's Like This
--------------------------------------------------------------------------------

DR         Peak         RMS     Duration Track
--------------------------------------------------------------------------------
DR13      -8.53 dB   -24.63 dB      4:34 01-Show Biz Kids
DR14      -8.32 dB   -26.37 dB      5:10 02-Trouble Man
DR12     -11.38 dB   -26.73 dB      2:32 03-For No One
DR13      -9.06 dB   -28.18 dB      1:48 04-Smile
DR14      -7.06 dB   -26.22 dB      5:13 05-Low Spark of High Heeled Boys
DR12      -8.40 dB   -23.46 dB      3:24 06-On The Street Where You Live
DR14     -10.60 dB   -27.83 dB      4:29 07-I Can't Get Started
DR13      -7.73 dB   -24.27 dB      2:49 08-Up A Lazy River
DR14     -10.76 dB   -28.27 dB      2:02 09-Someone To Watch Over Me
DR13      -9.81 dB   -27.35 dB      3:17 10-Cycles
DR13      -9.93 dB   -27.51 dB      2:02 11-One Hand, One Heart
--------------------------------------------------------------------------------

Number of tracks:  11
Official DR value: DR13

Samplerate:        2822400 Hz / PCM Samplerate: 176400 Hz
Channels:          2
Bits per sample:   1
Bitrate:           5645 kbps
Codec:             DSD64
================================================================================




Create a new paste based on this one


Comments: