[ create a new paste ] login | about

Link: http://codepad.org/cHzVRWQa    [ raw code | fork ]

Plain Text, pasted on Dec 4:
[CUETools log; Date: 12/4/2016 9:05:37 AM; Version: 2.1.5]
Pregap length 00:00:33.
[CTDB TOCID: 63_hGE7rBx334hnVD4gWwiWwkiU-] found.
Track | CTDB Status
  1   | (23/24) Accurately ripped
  2   | (24/24) Accurately ripped
  3   | (24/24) Accurately ripped
  4   | (24/24) Accurately ripped
  5   | (24/24) Accurately ripped
  6   | (24/24) Accurately ripped
  7   | (24/24) Accurately ripped
  8   | (24/24) Accurately ripped
  9   | (24/24) Accurately ripped
 10   | (24/24) Accurately ripped
 11   | (23/24) Accurately ripped
 12   | (24/24) Accurately ripped
 13   | (24/24) Accurately ripped
 14   | (24/24) Accurately ripped
 15   | (24/24) Accurately ripped
 16   | (24/24) Accurately ripped
 17   | (24/24) Accurately ripped
[AccurateRip ID: 002ccf14-023bce1e-d7117411] found.
Track   [  CRC   |   V2   ] Status
 01     [2931d1d5|297d65a0] (10+10/20) Accurately ripped
 02     [b68d6c2d|f5b4a1bf] (10+10/20) Accurately ripped
 03     [e353a7d0|6fb2f003] (10+11/21) Accurately ripped
 04     [ee5c4d78|7d0384a7] (10+10/20) Accurately ripped
 05     [0a56ff69|c77b92cd] (11+10/21) Accurately ripped
 06     [1a949fda|51e57f2c] (10+10/20) Accurately ripped
 07     [aa9747f4|35cda16b] (11+10/21) Accurately ripped
 08     [8d6e99a8|c7ab6854] (10+10/20) Accurately ripped
 09     [b40165b6|6e60ecc0] (10+10/20) Accurately ripped
 10     [0e8c3b86|010534fe] (10+10/20) Accurately ripped
 11     [8c8fa21b|be0c7e23] (10+10/20) Accurately ripped
 12     [b4657ac8|14e5a8f3] (10+10/20) Accurately ripped
 13     [7a873fb4|93c9af75] (11+09/20) Accurately ripped
 14     [5f7d20b5|035626b1] (10+10/20) Accurately ripped
 15     [8d447e02|e69199a6] (10+10/20) Accurately ripped
 16     [3e90848e|4d17ded7] (10+10/20) Accurately ripped
 17     [f9474d5c|475f490f] (10+09/19) Accurately ripped

Track Peak [ CRC32  ] [W/O NULL] [  LOG   ]
 --   93.2 [107D1BA9] [E4F2F7F9]   CRC32   
 01   91.3 [3E17B492] [CAFA5FA5]           
 02   91.4 [8AFC04CE] [F32DBF4A]           
 03   93.2 [15B3D3FC] [2ABE7278]           
 04   91.9 [E1769791] [5D8D3573]           
 05   92.5 [6320C4CB] [AA582EBB]           
 06   89.8 [085B2C82] [78D2CD4F]           
 07   83.3 [7DB556F7] [55FA0D7F]           
 08   90.3 [E7FF70E8] [F5925EEB]           
 09   84.7 [5BFA23F5] [5A84CD57]           
 10   79.6 [60EDED31] [4053A449]           
 11   84.6 [E5F983DB] [3F4CCF62]           
 12   89.8 [DDB1D292] [301F095A]           
 13   90.9 [225EF76C] [AEA4565A]           
 14   91.7 [ECA6C2A9] [2F2F9DAF]           
 15   85.3 [53B87DB1] [021E082D]           
 16   81.2 [1092D1FE] [C5D0A10D]           
 17   72.9 [4ED6D89F] [C91D72B4]           



Create a new paste based on this one


Comments: