[ create a new paste ] login | about

Link: http://codepad.org/cK6UfsRq    [ raw code | fork ]

Plain Text, pasted on May 20:
Exact Audio Copy V1.1 from 23. June 2015

EAC extraction logfile from 15. May 2016, 11:29

Various Artists / No. 1 Hits of the '50s (CD 2)

Used drive  : hp      CDDVDW SH-216BB   Adapter: 1  ID: 0

Read mode               : Secure
Utilize accurate stream : Yes
Defeat audio cache      : Yes
Make use of C2 pointers : No

Read offset correction                      : 6
Overread into Lead-In and Lead-Out          : No
Fill up missing offset samples with silence : Yes
Delete leading and trailing silent blocks   : No
Null samples used in CRC calculations       : Yes
Used interface                              : Native Win32 interface for Win NT & 2000

Used output format : Internal WAV Routines
Sample format      : 44.100 Hz; 16 Bit; Stereo


TOC of the extracted CD

     Track |   Start  |  Length  | Start sector | End sector 
    ---------------------------------------------------------
        1  |  0:00.00 |  2:11.53 |         0    |     9877   
        2  |  2:11.53 |  2:35.26 |      9878    |    21528   
        3  |  4:47.04 |  2:15.59 |     21529    |    31712   
        4  |  7:02.63 |  2:06.56 |     31713    |    41218   
        5  |  9:09.44 |  2:38.29 |     41219    |    53097   
        6  | 11:47.73 |  2:23.21 |     53098    |    63843   
        7  | 14:11.19 |  2:12.08 |     63844    |    73751   
        8  | 16:23.27 |  2:17.58 |     73752    |    84084   
        9  | 18:41.10 |  3:02.73 |     84085    |    97807   
       10  | 21:44.08 |  2:12.67 |     97808    |   107774   
       11  | 23:57.00 |  2:47.21 |    107775    |   120320   
       12  | 26:44.21 |  2:09.59 |    120321    |   130054   
       13  | 28:54.05 |  2:42.31 |    130055    |   142235   
       14  | 31:36.36 |  2:25.31 |    142236    |   153141   
       15  | 34:01.67 |  1:59.25 |    153142    |   162091   
       16  | 36:01.17 |  2:21.72 |    162092    |   172738   
       17  | 38:23.14 |  2:39.22 |    172739    |   184685   
       18  | 41:02.36 |  2:05.57 |    184686    |   194117   
       19  | 43:08.18 |  2:17.02 |    194118    |   204394   
       20  | 45:25.20 |  2:14.13 |    204395    |   214457   
       21  | 47:39.33 |  2:05.50 |    214458    |   223882   
       22  | 49:45.08 |  2:23.31 |    223883    |   234638   
       23  | 52:08.39 |  2:23.12 |    234639    |   245375   
       24  | 54:31.51 |  2:54.15 |    245376    |   258440   
       25  | 57:25.66 |  2:38.07 |    258441    |   270297   


Range status and errors

Selected range

     Filename C:\Users\Arturs\Desktop\Various Artists - No. 1 Hits of the '50s (CD 2).wav

     Peak level 98.8 %
     Extraction speed 3.1 X
     Range quality 100.0 %
     Test CRC E675F8B4
     Copy CRC E675F8B4
     Copy OK

No errors occurred

 
AccurateRip summary
 
Track  1  accurately ripped (confidence 2)  [4D048A37]  (AR v2)
Track  2  accurately ripped (confidence 2)  [678F4F7D]  (AR v2)
Track  3  accurately ripped (confidence 2)  [70D620F4]  (AR v2)
Track  4  accurately ripped (confidence 2)  [BD646668]  (AR v2)
Track  5  accurately ripped (confidence 2)  [FB77069E]  (AR v2)
Track  6  accurately ripped (confidence 2)  [D1E7164F]  (AR v2)
Track  7  accurately ripped (confidence 2)  [800D5F4E]  (AR v2)
Track  8  accurately ripped (confidence 2)  [268CDB39]  (AR v2)
Track  9  accurately ripped (confidence 2)  [EBF2276C]  (AR v2)
Track 10  accurately ripped (confidence 2)  [E5C40863]  (AR v2)
Track 11  accurately ripped (confidence 2)  [49166C07]  (AR v2)
Track 12  accurately ripped (confidence 2)  [FCB989A1]  (AR v2)
Track 13  accurately ripped (confidence 2)  [12AC4780]  (AR v2)
Track 14  accurately ripped (confidence 2)  [34D1143F]  (AR v2)
Track 15  accurately ripped (confidence 2)  [9944C38F]  (AR v2)
Track 16  accurately ripped (confidence 2)  [ECA7BE0B]  (AR v2)
Track 17  accurately ripped (confidence 2)  [8910A848]  (AR v2)
Track 18  accurately ripped (confidence 2)  [7DAB78E4]  (AR v2)
Track 19  accurately ripped (confidence 2)  [130F82B8]  (AR v2)
Track 20  accurately ripped (confidence 2)  [4B5C2381]  (AR v2)
Track 21  accurately ripped (confidence 2)  [AA4F2BBA]  (AR v2)
Track 22  accurately ripped (confidence 2)  [C722E4C0]  (AR v2)
Track 23  accurately ripped (confidence 2)  [E3AF8398]  (AR v2)
Track 24  accurately ripped (confidence 2)  [306EFEEF]  (AR v2)
Track 25  accurately ripped (confidence 3)  [ADC5D64C]  (AR v2)
 
All tracks accurately ripped

End of status report

---- CUETools DB Plugin V2.1.6

[CTDB TOCID: q7W2Tu09mfKteuXKBuvZFM5MEME-] found
Submit result: q7W2Tu09mfKteuXKBuvZFM5MEME- has been confirmed
Track | CTDB Status
  1   | (5/5) Accurately ripped
  2   | (5/5) Accurately ripped
  3   | (5/5) Accurately ripped
  4   | (5/5) Accurately ripped
  5   | (5/5) Accurately ripped
  6   | (5/5) Accurately ripped
  7   | (5/5) Accurately ripped
  8   | (5/5) Accurately ripped
  9   | (5/5) Accurately ripped
 10   | (5/5) Accurately ripped
 11   | (5/5) Accurately ripped
 12   | (5/5) Accurately ripped
 13   | (5/5) Accurately ripped
 14   | (5/5) Accurately ripped
 15   | (5/5) Accurately ripped
 16   | (5/5) Accurately ripped
 17   | (5/5) Accurately ripped
 18   | (5/5) Accurately ripped
 19   | (5/5) Accurately ripped
 20   | (5/5) Accurately ripped
 21   | (5/5) Accurately ripped
 22   | (5/5) Accurately ripped
 23   | (5/5) Accurately ripped
 24   | (5/5) Accurately ripped
 25   | (5/5) Accurately ripped


==== Log checksum C831EF8FDE72EA1B0C6E9FF4F80AD17A1B3079ED6A7275523BD542625C6B9DE5 ====



Create a new paste based on this one


Comments: