[ create a new paste ] login | about

Link: http://codepad.org/cMONfp7L    [ raw code | fork ]

Plain Text, pasted on Dec 17:
Exact Audio Copy V1.0 beta 3 from 29. August 2011

EAC extraction logfile from 13. August 2013, 13:43

The Beatles with Tony Sheridan / Single Box CD6

Used drive  : PLEXTOR BD-R  PX-B950SA   Adapter: 6  ID: 0

Read mode               : Secure
Utilize accurate stream : Yes
Defeat audio cache      : Yes
Make use of C2 pointers : No

Read offset correction                      : 6
Overread into Lead-In and Lead-Out          : No
Fill up missing offset samples with silence : Yes
Delete leading and trailing silent blocks   : No
Null samples used in CRC calculations       : Yes
Used interface                              : Native Win32 interface for Win NT & 2000

Used output format : Internal WAV Routines
Sample format      : 44.100 Hz; 16 Bit; Stereo


TOC of the extracted CD

     Track |   Start  |  Length  | Start sector | End sector 
    ---------------------------------------------------------
        1  |  0:00.00 |  2:59.25 |         0    |    13449   
        2  |  2:59.25 |  2:32.71 |     13450    |    24920   
        3  |  5:32.21 |  2:58.45 |     24921    |    38315   
        4  |  8:30.66 |  2:28.21 |     38316    |    49436   


Range status and errors

Selected range

     Filename C:\The Beatles\2013 Single Box (9 SHM-CD Box Set Universal Music Japan)\CD6\The Beatles with Tony Sheridan - Single Box CD6.wav

     Peak level 100.0 %
     Extraction speed 5.2 X
     Range quality 100.0 %
     Test CRC 0496539E
     Copy CRC 0496539E
     Copy OK

No errors occurred

 
AccurateRip summary
 
Track  1  not present in database
Track  2  not present in database
Track  3  not present in database
Track  4  not present in database
 
None of the tracks are present in the AccurateRip database

End of status report

==== Log checksum 57C769F8DDC0A06504D73BE7A7149C7BBF1A64196007A5AE906C4109C652990E ====



Create a new paste based on this one


Comments: