[ create a new paste ] login | about

Link: http://codepad.org/cNbIxJx1    [ raw code | fork ]

Plain Text, pasted on Jul 20:
Exact Audio Copy V1.3 from 2. September 2016

EAC extraction logfile from 15. July 2018, 6:16

Guns N' Roses / Appetite For Destruction CD4

Used drive  : PLEXTOR BD-R  PX-B950SA   Adapter: 1  ID: 1

Read mode               : Secure
Utilize accurate stream : Yes
Defeat audio cache      : Yes
Make use of C2 pointers : No

Read offset correction                      : 6
Overread into Lead-In and Lead-Out          : No
Fill up missing offset samples with silence : Yes
Delete leading and trailing silent blocks   : No
Null samples used in CRC calculations       : Yes
Used interface                              : Native Win32 interface for Win NT & 2000

Used output format : Internal WAV Routines
Sample format      : 44.100 Hz; 16 Bit; Stereo


TOC of the extracted CD

     Track |   Start  |  Length  | Start sector | End sector 
    ---------------------------------------------------------
        1  |  0:00.00 |  3:05.43 |         0    |    13917   
        2  |  3:05.43 |  3:16.45 |     13918    |    28662   
        3  |  6:22.13 |  3:30.50 |     28663    |    44462   
        4  |  9:52.63 |  0:54.18 |     44463    |    48530   
        5  | 10:47.06 |  2:58.14 |     48531    |    61894   
        6  | 13:45.20 |  4:39.57 |     61895    |    82876   
        7  | 18:25.02 |  2:45.67 |     82877    |    95318   
        8  | 21:10.69 |  3:26.34 |     95319    |   110802   
        9  | 24:37.28 |  3:25.41 |    110803    |   126218   
       10  | 28:02.69 | 10:18.22 |    126219    |   172590   
       11  | 38:21.16 |  3:41.66 |    172591    |   189231   
       12  | 42:03.07 |  4:06.20 |    189232    |   207701   
       13  | 46:09.27 |  5:00.44 |    207702    |   230245   
       14  | 51:09.71 |  3:52.63 |    230246    |   247708   
       15  | 55:02.59 |  3:26.59 |    247709    |   263217   


Range status and errors

Selected range

     Filename C:\Guns N' Roses\1987 Appetite For Destruction (5-Disc Box Set Universal Music 2018)\CD4\Guns N' Roses - Appetite For Destruction CD4.wav

     Peak level 100.0 %
     Extraction speed 7.3 X
     Range quality 99.9 %
     Test CRC A2D26B72
     Copy CRC A2D26B72
     Copy OK

No errors occurred

 
AccurateRip summary
 
Track  1  accurately ripped (confidence 1)  [A3B83138]  (AR v2)
Track  2  accurately ripped (confidence 1)  [64704CD1]  (AR v2)
Track  3  accurately ripped (confidence 1)  [05318207]  (AR v2)
Track  4  accurately ripped (confidence 1)  [E7AD6B5F]  (AR v2)
Track  5  accurately ripped (confidence 1)  [C9F4FA69]  (AR v2)
Track  6  accurately ripped (confidence 1)  [EF6988F0]  (AR v2)
Track  7  accurately ripped (confidence 1)  [FABB65CC]  (AR v2)
Track  8  accurately ripped (confidence 1)  [41C5200F]  (AR v2)
Track  9  accurately ripped (confidence 1)  [40D60FD2]  (AR v2)
Track 10  accurately ripped (confidence 1)  [A1ADD6B8]  (AR v2)
Track 11  accurately ripped (confidence 1)  [2AE5AA6D]  (AR v2)
Track 12  accurately ripped (confidence 1)  [6CA971FA]  (AR v2)
Track 13  accurately ripped (confidence 1)  [0BA3E0FE]  (AR v2)
Track 14  accurately ripped (confidence 1)  [0DBEA6FB]  (AR v2)
Track 15  accurately ripped (confidence 1)  [7837A893]  (AR v2)
 
All tracks accurately ripped

End of status report

---- CUETools DB Plugin V2.1.6

[CTDB TOCID: pHjqdvywpbJDC45.jMx_CqdTSNI-] found
Submit result: pHjqdvywpbJDC45.jMx_CqdTSNI- has been confirmed
Track | CTDB Status
  1   | (38/38) Accurately ripped
  2   | (38/38) Accurately ripped
  3   | (38/38) Accurately ripped
  4   | (38/38) Accurately ripped
  5   | (38/38) Accurately ripped
  6   | (38/38) Accurately ripped
  7   | (38/38) Accurately ripped
  8   | (38/38) Accurately ripped
  9   | (38/38) Accurately ripped
 10   | (38/38) Accurately ripped
 11   | (38/38) Accurately ripped
 12   | (38/38) Accurately ripped
 13   | (36/38) Accurately ripped
 14   | (38/38) Accurately ripped
 15   | (37/38) Accurately ripped


==== Log checksum D207969D83B672BC97F166D993F4D8088D99FE74A2BC9490DAE0C5D10B993C59 ====



Create a new paste based on this one


Comments: