[ create a new paste ] login | about

Link: http://codepad.org/cRpsrA2Q    [ raw code | fork ]

Plain Text, pasted on Jul 23:
foobar2000 1.3.17 / Dynamic Range Meter 1.1.1
log date: 2018-07-23 08:06:56

--------------------------------------------------------------------------------
Analyzed: Ella Fitzgerald / Supreme Jazz
--------------------------------------------------------------------------------

DR         Peak         RMS     Duration Track
--------------------------------------------------------------------------------
DR13      -0.36 dB   -21.32 dB      3:16 01-I┤ve Got The World On A String
DR13      -0.23 dB   -21.85 dB      3:15 02-Ain┤t Nobody┤s Business But My Own
DR14      -0.27 dB   -21.92 dB      3:15 03-Someone To Watch Over Me
DR13      -0.26 dB   -20.17 dB      3:04 04-Lonesome Gal
DR14      -0.26 dB   -21.85 dB      3:16 05-My One And Only
DR12      -0.27 dB   -19.26 dB      2:43 06-The Cheasapeake And Ohio
DR13      -0.33 dB   -21.38 dB      3:12 07-Because Of Rain
DR13      -0.30 dB   -18.85 dB      3:17 08-The Hot Canary
DR13      -0.26 dB   -20.78 dB      3:32 09-Even As You And I
DR11      -0.26 dB   -16.48 dB      3:01 10-Love You Madly
DR13      -0.27 dB   -20.61 dB      3:19 11-Mixed Emotions
DR13      -0.29 dB   -20.07 dB      3:23 12-Give A Little, Get A Little
DR11      -0.30 dB   -18.11 dB      3:14 13-I Don┤t Want To Take A Chance
DR12      -0.26 dB   -18.64 dB      3:12 14-Oops!
DR13      -0.27 dB   -19.62 dB      2:34 15-Necessary Evil
DR13      -0.26 dB   -19.03 dB      3:12 16-Lazy Day
DR14      -0.25 dB   -21.31 dB      2:25 17-Goody Goody
DR14      -0.26 dB   -21.86 dB      2:54 18-Angel Eyes 
DR15      -0.01 dB   -22.88 dB      5:12 19-You┤ll Have to Swing It
DR14      -0.43 dB   -22.39 dB      2:54 20-Melancholy Me
DR13      -0.25 dB   -20.12 dB      2:50 21-Careless
DR12      -0.29 dB   -18.48 dB      2:47 22-Blue Lou
--------------------------------------------------------------------------------

Number of tracks:  22
Official DR value: DR13

Samplerate:        88200 Hz
Channels:          6
Bits per sample:   24
Bitrate:           7406 kbps
Codec:             FLAC
================================================================================




Create a new paste based on this one


Comments: