[ create a new paste ] login | about

Link: http://codepad.org/cS0YijJ0    [ raw code | fork ]

Plain Text, pasted on Jul 2:
foobar2000 1.4.4 / Dynamic Range Meter 1.1.1
log date: 2019-07-01 22:23:05

--------------------------------------------------------------------------------
Analyzed: Willy Porter / Willy Porter
--------------------------------------------------------------------------------

DR         Peak         RMS     Duration Track
--------------------------------------------------------------------------------
DR14      -6.05 dB   -25.81 dB      3:59 01-Unconditional
DR12      -3.94 dB   -23.78 dB      3:37 02-If Love were an Airplane
DR13      -3.99 dB   -23.43 dB      3:37 03-Dandelion on the Minefield
DR14      -4.77 dB   -27.37 dB      3:50 04-Breathe
DR13      -3.53 dB   -24.62 dB      5:49 05-Big Yellow Pine
DR13      -4.94 dB   -23.85 dB      3:34 06-Dirty Movie
DR12      -6.73 dB   -28.70 dB      3:39 07-Dishwater Blonde
DR13      -5.73 dB   -25.56 dB      4:00 08-All Fall Down
DR14      -4.32 dB   -26.38 dB      3:40 09-Everything but Sorry
DR13      -8.67 dB   -27.62 dB      3:51 10-How Did You Know?
DR13      -6.44 dB   -26.08 dB      3:33 11-Blue Light
--------------------------------------------------------------------------------

Number of tracks:  11
Official DR value: DR13

Samplerate:        2822400 Hz / PCM Samplerate: 176400 Hz
Channels:          6
Bits per sample:   1
Bitrate:           16934 kbps
Codec:             DST64
================================================================================

--------------------------------------------------------------------------------
Analyzed: Willy Porter / Willy Porter
--------------------------------------------------------------------------------

DR         Peak         RMS     Duration Track
--------------------------------------------------------------------------------
DR11      -5.33 dB   -18.93 dB      3:59 01-Unconditional
DR9       -5.35 dB   -16.11 dB      3:37 02-If Love were an Airplane
DR8       -5.72 dB   -16.67 dB      3:37 03-Dandelion on the Minefield
DR13      -5.33 dB   -21.34 dB      3:50 04-Breathe
DR10      -5.27 dB   -17.64 dB      5:49 05-Big Yellow Pine
DR7       -4.97 dB   -15.24 dB      3:34 06-Dirty Movie
DR12      -5.35 dB   -20.83 dB      3:39 07-Dishwater Blonde
DR11      -5.18 dB   -18.16 dB      4:00 08-All Fall Down
DR12      -5.35 dB   -19.78 dB      3:40 09-Everything but Sorry
DR12      -5.38 dB   -19.02 dB      3:51 10-How Did You Know?
DR10      -5.24 dB   -18.56 dB      3:33 11-Blue Light
--------------------------------------------------------------------------------

Number of tracks:  11
Official DR value: DR11

Samplerate:        2822400 Hz / PCM Samplerate: 176400 Hz
Channels:          2
Bits per sample:   1
Bitrate:           5645 kbps
Codec:             DST64
================================================================================




Create a new paste based on this one


Comments: