[ create a new paste ] login | about

Link: http://codepad.org/cS57vXw2    [ raw code | fork ]

Plain Text, pasted on Jul 23:
foobar2000 1.3.17 / Dynamic Range Meter 1.1.1
log date: 2018-07-23 13:43:31

--------------------------------------------------------------------------------
Analyzed: The Band / Rock Of Ages
--------------------------------------------------------------------------------

DR         Peak         RMS     Duration Track
--------------------------------------------------------------------------------
DR14     -13.39 dB   -30.57 dB      0:58 01-Introduction
DR15      -5.85 dB   -23.26 dB      5:00 02-Don't Do It
DR15      -6.86 dB   -24.43 dB      4:05 03-King Harvest (Has Surely Come)
DR15      -7.40 dB   -24.50 dB      3:39 04-Caledonia Mission
DR14      -6.04 dB   -22.95 dB      3:33 05-Get Up Jake
DR15      -6.29 dB   -23.06 dB      3:53 06-The W.S. Walcott Medicine Show
DR13      -6.73 dB   -22.70 dB      4:38 07-Stage Fright
DR14      -5.78 dB   -22.17 dB      4:35 08-The Night They Drove Old Dixie Down
DR15      -5.75 dB   -23.02 dB      3:59 09-Across The Great Divide
DR15      -5.84 dB   -22.25 dB      4:07 10-This Wheel's On Fire
DR13      -7.00 dB   -22.87 dB      4:36 11-Rag Mama Rag
DR15      -6.52 dB   -23.54 dB      5:33 12-The Weight
DR14      -6.87 dB   -22.96 dB      4:14 13-The Shape I'm In
DR14      -6.55 dB   -23.69 dB      4:48 14-Unfaithful Servant
DR14      -5.77 dB   -22.19 dB      4:23 15-Life Is A Carnival
DR12     -10.03 dB   -25.09 dB      7:47 16-The Genetic Method
DR14      -6.77 dB   -22.50 dB      5:25 17-Chest Fever
DR14      -6.00 dB   -22.17 dB      4:29 18-(I Don't Want To) Hang Up My Rock And Roll Shoes
--------------------------------------------------------------------------------

Number of tracks:  18
Official DR value: DR14

Samplerate:        2822400 Hz / PCM Samplerate: 176400 Hz
Channels:          2
Bits per sample:   1
Bitrate:           5645 kbps
Codec:             DSD64
================================================================================




Create a new paste based on this one


Comments: