[ create a new paste ] login | about

Link: http://codepad.org/cTLS7ezo    [ raw code | fork ]

Plain Text, pasted on Nov 26:
Disc 1
->
foobar2000 1.4.6 / Dynamic Range Meter 1.1.1
log date: 2019-11-26 09:59:02

--------------------------------------------------------------------------------
Analyzed: Rundfunkchor Berlin, Rundfunk-Sinfonieorchester Berlin, conducted by Marek Janowski / Richard Wagner: Tannhäuser
--------------------------------------------------------------------------------

DR         Peak         RMS     Duration Track
--------------------------------------------------------------------------------
DR15      -0.35 dB   -23.01 dB     18:02 01-Act 1: Scene 1: Overture - Der Venusberg
DR14      -3.69 dB   -28.29 dB      3:54 02-Act 1: Scene 2: Geliebter sag! Wo weilt dein Sinn?
DR15      -0.01 dB   -26.40 dB      5:28 03-Act 1: Scene 2: Dir töne Lob!
DR15      -6.07 dB   -29.58 dB      3:06 04-Act 1: Scene 2: Geliebter komm!
DR13      -7.36 dB   -26.11 dB      1:42 05-Act 1: Scene 2: Stets soll nur dir mein Lied ertönen
DR12      -1.58 dB   -21.81 dB      3:18 06-Act 1: Scene 2: Zieh hin, Wahnsinniger!
DR19      -4.67 dB   -32.71 dB      5:22 07-Act 1: Scene 3: Frau Holda kam aus dem Berg hervor
DR14     -13.73 dB   -36.95 dB      3:22 08-Act 1: Scene 3: Zu dir wall ich, mein Jesus Christ
DR14      -4.65 dB   -27.73 dB      4:50 09-Act 1: Scene 4: Wer ist der dort in brünstigem Gebete?
DR15      -0.73 dB   -24.40 dB      6:05 10-Act 1: Scene 4: Als du in kühnem Sange uns bestrittest
--------------------------------------------------------------------------------

Number of tracks:  10
Official DR value: DR15

Samplerate:        88200 Hz
Channels:          5
Bits per sample:   24
Bitrate:           5550 kbps
Codec:             FLAC
================================================================================
->
=========================================================================================================================================================
->
Disc 2
->
foobar2000 1.4.6 / Dynamic Range Meter 1.1.1
log date: 2019-11-26 10:01:35

--------------------------------------------------------------------------------
Analyzed: Rundfunkchor Berlin, Rundfunk-Sinfonieorchester Berlin, conducted by Marek Janowski / Richard Wagner: Tannhäuser
--------------------------------------------------------------------------------

DR         Peak         RMS     Duration Track
--------------------------------------------------------------------------------
DR14      -4.04 dB   -26.00 dB      4:50 01-Act 2: Scene 1: Introduction - Dich, teure Halle
DR15      -2.56 dB   -29.27 dB      6:58 02-Act 2: Scene 2: Dort ist sie; nahe dich ihr ungestört!
DR13      -0.31 dB   -22.68 dB      3:40 03-Act 2: Scene 2: Den Gott der Liebe sollst du preisen!
DR14      -9.33 dB   -32.18 dB      3:50 04-Act 2: Scene 3: Dich treff ich hier in dieser Halle
DR14      -0.54 dB   -22.89 dB      7:17 05-Act 2: Scene 4: Freudig begrüßen wir die edle Halle
DR17      -0.72 dB   -26.72 dB      5:25 06-Act 2: Scene 4: Gar viel und schön ward hier in dieser Halle
DR16      -3.06 dB   -32.45 dB      5:14 07-Act 2: Scene 4: Der Sängerkrieg
DR14      -5.71 dB   -30.70 dB      3:27 08-Act 2: Scene 4: Auch ich darf mich so glücklich nennen
DR15      -2.59 dB   -28.09 dB      4:32 09-Act 2: Scene 4: O Walter, der du also sangest
DR14      -0.09 dB   -21.23 dB      1:36 10-Act 2: Scene 4: Dir, Göttin der Liebe, soll mein Lied ertönen
DR14      -2.16 dB   -23.89 dB      2:07 11-Act 2: Scene 4: Was hör’ ich?
DR14      -7.42 dB   -30.29 dB      3:18 12-Act 2: Scene 4: Der Unglücksel’ge
DR14      -0.01 dB   -24.40 dB      5:27 13-Act 2: Scene 4: Weh! Weh mir Unglücksel’gem!
DR13      -9.35 dB   -29.08 dB      2:08 14-Act 2: Scene 4: Ein furchtbares Verbrechen ward begangen
DR13      -0.74 dB   -23.49 dB      5:23 15-Act 2: Scene 4: Versammelt sind aus meinen Landen
--------------------------------------------------------------------------------

Number of tracks:  15
Official DR value: DR14

Samplerate:        88200 Hz
Channels:          5
Bits per sample:   24
Bitrate:           5502 kbps
Codec:             FLAC
================================================================================
->
=========================================================================================================================================================
->
Disc 3
->
foobar2000 1.4.6 / Dynamic Range Meter 1.1.1
log date: 2019-11-26 10:03:20

--------------------------------------------------------------------------------
Analyzed: Rundfunkchor Berlin, Rundfunk-Sinfonieorchester Berlin, conducted by Marek Janowski / Richard Wagner: Tannhäuser
--------------------------------------------------------------------------------

DR         Peak         RMS     Duration Track
--------------------------------------------------------------------------------
DR16      -0.58 dB   -27.40 dB      7:23 01-Act 3: Introduction and Tannhäuser’s pilgrimage
DR15      -4.67 dB   -31.37 dB      3:13 02-Act 3: Scene 1: Wohl wußt’ ich hier sie im Gebet
DR13      -0.18 dB   -23.90 dB      4:31 03-Act 3: Scene 1: Beglückt darf nun dich, o Heimat
DR17      -7.48 dB   -33.12 dB      9:13 04-Act 3: Scene 1: Allmächt’ge Jungfrau! Hör mein Flehen!
DR12     -19.00 dB   -38.30 dB      1:53 05-Act 3: Scene 2: Wie Todesahnung
DR12     -16.86 dB   -37.60 dB      2:57 06-Act 3: Scene 2: O, du mein holder Abendstern
DR16      -3.17 dB   -28.85 dB      4:16 07-Act 3: Scene 3: Ich hörte Harfenschlag
DR12     -10.78 dB   -30.90 dB      3:13 08-Act 3: Scene 3: Hör an! Inbrunst im Herzen
DR17      -0.76 dB   -26.13 dB      3:49 09-Act 3: Scene 3: Nach Rom gelangt ich so zur heil’gen Stelle
DR14      -5.24 dB   -25.89 dB      3:37 10-Act 3: Scene 3: Da sank ich in Vernichtung dumpf darnieder
DR14      -0.34 dB   -22.01 dB      3:51 11-Act 3: Scene 3: Willkommen, ungetreuer Mann!
DR12      -0.01 dB   -18.49 dB      2:29 12-Act 3: Scene 3: Heil! Heil! Der Gnade Wunder Heil!
--------------------------------------------------------------------------------

Number of tracks:  12
Official DR value: DR14

Samplerate:        88200 Hz
Channels:          5
Bits per sample:   24
Bitrate:           5586 kbps
Codec:             FLAC
================================================================================




Create a new paste based on this one


Comments: