[ create a new paste ] login | about

Link: http://codepad.org/cWGfH7mt    [ raw code | fork ]

Plain Text, pasted on Jul 26:
[CUETools log; Date: 7/26/2016 3:14:09 PM; Version: 2.1.5]
[CTDB TOCID: au2XQa0NuOulVh_1ul4GCd71Ki8-] found.
Track | CTDB Status
  1   | (14/14) Accurately ripped
  2   | (14/14) Accurately ripped
  3   | (14/14) Accurately ripped
  4   | (14/14) Accurately ripped
  5   | (14/14) Accurately ripped
  6   | (14/14) Accurately ripped
  7   | (14/14) Accurately ripped
  8   | (14/14) Accurately ripped
  9   | (14/14) Accurately ripped
 10   | (14/14) Accurately ripped
 11   | (14/14) Accurately ripped
 12   | (14/14) Accurately ripped
 13   | (14/14) Accurately ripped
 14   | (14/14) Accurately ripped
 15   | (14/14) Accurately ripped
 16   | (14/14) Accurately ripped
 17   | (14/14) Accurately ripped
 18   | (14/14) Accurately ripped
 19   | (14/14) Accurately ripped
 20   | (14/14) Accurately ripped
 21   | (14/14) Accurately ripped
 22   | (14/14) Accurately ripped
[AccurateRip ID: 003bbee1-03bf4413-2711f616] found.
Track   [  CRC   |   V2   ] Status
 01     [c7207c79|d3f39e1b] (04+18/22) Accurately ripped
 02     [6367dd43|a0190752] (04+18/22) Accurately ripped
 03     [d28e4b6a|955a4712] (04+18/22) Accurately ripped
 04     [3ac43974|d4314e51] (04+18/22) Accurately ripped
 05     [df6a0698|941b21b5] (04+18/22) Accurately ripped
 06     [2f4551fa|88685e6e] (04+18/22) Accurately ripped
 07     [68563810|30568b18] (04+18/22) Accurately ripped
 08     [dd06ae39|83314bc8] (04+18/22) Accurately ripped
 09     [96401308|e11e238e] (04+18/22) Accurately ripped
 10     [0f34775b|ec0e50dd] (04+18/22) Accurately ripped
 11     [1306994e|9eb266da] (04+18/22) Accurately ripped
 12     [3449f37a|c96d431e] (04+18/22) Accurately ripped
 13     [546a43ba|8bd078dd] (04+18/22) Accurately ripped
 14     [53523232|f2be4ec5] (04+18/22) Accurately ripped
 15     [22fc3247|bf4ed252] (04+18/22) Accurately ripped
 16     [d25472ba|edafd328] (04+18/22) Accurately ripped
 17     [3f49e1e9|edec8f07] (04+18/22) Accurately ripped
 18     [05dd27d5|9e338479] (03+18/21) Accurately ripped
 19     [4584ae07|775ad1b6] (04+18/22) Accurately ripped
 20     [3314b9ba|dc855590] (04+18/22) Accurately ripped
 21     [0116f374|3da677c8] (04+18/22) Accurately ripped
 22     [f33a8df1|8869a48b] (04+18/22) Accurately ripped

Track Peak [ CRC32  ] [W/O NULL] [  LOG   ]
 --   97.0 [6426AD70] [E5EEF1FD]   CRC32   
 01   91.4 [F6F2D6EA] [6E1279AE]           
 02   97.0 [056FC2CE] [2C606E33]           
 03   74.3 [22ACB363] [EF26BE3E]           
 04   91.1 [A899A2CF] [F097DE32]           
 05   82.5 [3E943AF3] [29CCEC57]           
 06   97.0 [F8D0A53F] [D12E8530]           
 07   77.9 [6D12BC22] [63DEE44A]           
 08   68.4 [553D8C27] [A8908269]           
 09   93.7 [AA53AC45] [8F95200B]           
 10   97.0 [F6212431] [A283F618]           
 11   96.3 [77FA7D7C] [18609348]           
 12   97.0 [5869A8E5] [F1D01157]           
 13   97.0 [F9EFF557] [8D91CA48]           
 14   97.0 [F71474E3] [0F333691]           
 15   97.0 [7AE9E742] [6B588783]           
 16   97.0 [4EC66BD4] [C2AE0543]           
 17   97.0 [DC8DFD9D] [5E114627]           
 18   97.0 [A124BD97] [9EEB7FF0]           
 19   97.0 [081AB574] [5F845C53]           
 20   97.0 [D6A434A7] [831B4017]           
 21   97.0 [E4D8BA32] [0CA1C503]           
 22   91.4 [FFD34ED0] [AD6A3594]           



Create a new paste based on this one


Comments: