[ create a new paste ] login | about

Link: http://codepad.org/cWsW4g0n    [ raw code | fork ]

Plain Text, pasted on Jan 22:
[CUETools log; Date: 1/22/2020 7:18:04 PM; Version: 2.1.7]
[CTDB TOCID: ds5sdH_aF61ltYe._HKKSwchXT4-] found.
Track | CTDB Status
  1   | (17/17) Accurately ripped
  2   | (17/17) Accurately ripped
  3   | (17/17) Accurately ripped
  4   | (17/17) Accurately ripped
  5   | (17/17) Accurately ripped
  6   | (17/17) Accurately ripped
  7   | (17/17) Accurately ripped
  8   | (17/17) Accurately ripped
  9   | (17/17) Accurately ripped
 10   | (17/17) Accurately ripped
 11   | (17/17) Accurately ripped
 12   | (17/17) Accurately ripped
[AccurateRip ID: 0011f0b9-00a700e1-94095f0c] found.
Track   [  CRC   |   V2   ] Status
 01     [4bbf27f1|1606fd92] (05+15/20) Accurately ripped
 02     [738919cb|e561713a] (05+15/20) Accurately ripped
 03     [1c73355b|c81e65d2] (05+14/19) Accurately ripped
 04     [b32eed94|24cef945] (05+16/21) Accurately ripped
 05     [b674e0b7|c20c2dab] (05+16/21) Accurately ripped
 06     [efa8bb8e|62c328e3] (05+16/21) Accurately ripped
 07     [c3029234|2e760d42] (05+16/21) Accurately ripped
 08     [43ce7825|02066d5d] (05+16/21) Accurately ripped
 09     [2685b9c6|14cdac9b] (05+16/21) Accurately ripped
 10     [45d8ff4b|1be3156c] (05+16/21) Accurately ripped
 11     [8e3899d0|a38347e9] (05+16/21) Accurately ripped
 12     [4fc4b121|98ff0983] (05+16/21) Accurately ripped

Track Peak [ CRC32  ] [W/O NULL] [  LOG   ]
 --   94.8 [2145EF8D] [9F61F879]           
 01   87.7 [560448AE] [C5C8EAAD]   CRC32   
 02   92.4 [29C8E917] [F71E6ECD]   CRC32   
 03   78.0 [520F4435] [2B955C8F]   CRC32   
 04   82.2 [0C1316D3] [CD8BD3BC]   CRC32   
 05   94.8 [C6C7B9E6] [C7FDBEA1]   CRC32   
 06   79.6 [A9844F26] [0733C5EC]   CRC32   
 07   83.4 [453CE6CD] [7B14D2A3]   CRC32   
 08   71.0 [D0991E09] [10B19120]   CRC32   
 09   86.1 [0AF263A5] [4E58162B]   CRC32   
 10   86.3 [50E42BE4] [4D1718BA]   CRC32   
 11   72.6 [814BF904] [78774D22]   CRC32   
 12   85.3 [F191D837] [F5A3CE64]   CRC32   



Create a new paste based on this one


Comments: