[ create a new paste ] login | about

Link: http://codepad.org/cZyOh1KW    [ raw code | fork ]

Plain Text, pasted on Mar 6:
foobar2000 1.4.1 / Dynamic Range Meter 1.1.1
log date: 2019-03-06 08:44:58

--------------------------------------------------------------------------------
Analyzed: Rebecca Pidgeon / The Raven
--------------------------------------------------------------------------------

DR         Peak         RMS     Duration Track
--------------------------------------------------------------------------------
DR13      -0.08 dB   -18.31 dB      3:05 01-Kalerka
DR13      -0.23 dB   -17.20 dB      2:48 02-The Witch
DR12      -1.41 dB   -17.66 dB      2:51 03-The Raven
DR14      -0.15 dB   -19.24 dB      3:40 04-You Need Me There
DR12      -1.13 dB   -16.99 dB      6:34 05-Grandmother
DR12      -0.06 dB   -15.24 dB      3:02 06-You Got Me
DR11      -0.05 dB   -13.78 dB      3:16 07-Heart and Mind
DR13      -0.27 dB   -16.51 dB      3:32 08-Her Man Leaves Town
DR11      -0.03 dB   -14.53 dB      4:00 09-Seven Hours
DR12      -0.52 dB   -16.87 dB      3:29 10-Wendy's Style Shop
DR11      -0.43 dB   -15.17 dB      3:43 11-The Height of Land
DR13      -0.32 dB   -16.92 dB      3:35 12-Spanish Harlem
DR11      -0.08 dB   -13.80 dB      2:31 13-Remember Me
--------------------------------------------------------------------------------

Number of tracks:  13
Official DR value: DR12

Samplerate:        88200 Hz
Channels:          2
Bits per sample:   24
Bitrate:           2746 kbps
Codec:             FLAC
================================================================================




Create a new paste based on this one


Comments: