[ create a new paste ] login | about

Link: http://codepad.org/cbsMng8h    [ raw code | fork ]

Plain Text, pasted on Oct 16:
foobar2000 1.4.4 / Dynamic Range Meter 1.1.1
log date: 2019-10-05 18:54:01

--------------------------------------------------------------------------------
Analyzed: Yellow Magic Orchestra / BGM (2019 Japan Hybrid SACD)
--------------------------------------------------------------------------------

DR         Peak         RMS     Duration Track
--------------------------------------------------------------------------------
DR8       -0.60 dB    -9.72 dB      4:34 01-Ballet
DR8       -0.01 dB   -10.03 dB      4:34 02-Music Plans
DR8       -0.55 dB    -9.72 dB      4:33 03-Rap Phenomena
DR11      -0.81 dB   -13.77 dB      4:33 04-Happy End
DR7       -0.42 dB    -9.08 dB      5:23 05-1000 Knives
DR8       -0.52 dB    -9.41 dB      4:33 06-Cue
DR6       -0.62 dB    -8.27 dB      4:34 07-U.T
DR8       -0.03 dB   -10.13 dB      4:34 08-Camouflage
DR8       -0.54 dB   -10.19 dB      4:32 09-Mass
DR9       -0.74 dB   -15.16 dB      5:21 10-Loom
--------------------------------------------------------------------------------

Number of tracks:  10
Official DR value: DR8

Samplerate:        88200 Hz
Channels:          2
Bits per sample:   24
Bitrate:           2325 kbps
Codec:             FLAC
================================================================================




Create a new paste based on this one


Comments: