[ create a new paste ] login | about

Link: http://codepad.org/cgFMXTOF    [ raw code | fork ]

Plain Text, pasted on Mar 22:
Exact Audio Copy V1.0 beta 3 from 29. August 2011

EAC extraction logfile from 29. May 2015, 12:29

Heart / The Box Set Series (Disc 1)

Used drive  : HL-DT-STDVD+-RW GSA-H31L   Adapter: 0  ID: 2

Read mode               : Secure
Utilize accurate stream : Yes
Defeat audio cache      : Yes
Make use of C2 pointers : No

Read offset correction                      : 102
Overread into Lead-In and Lead-Out          : No
Fill up missing offset samples with silence : Yes
Delete leading and trailing silent blocks   : No
Null samples used in CRC calculations       : Yes
Used interface                              : Native Win32 interface for Win NT & 2000
Gap handling                                : Appended to previous track

Used output format              : User Defined Encoder
Selected bitrate                : 896 kBit/s
Quality                         : High
Add ID3 tag                     : No
Command line compressor         : C:\Program Files (x86)\Exact Audio Copy\Flac\flac.exe
Additional command line options : -8 -V -T "ARTIST=%artist%" -T "TITLE=%title%" -T "ALBUM=%albumtitle%" -T "DATE=%year%" -T "TRACKNUMBER=%tracknr%" -T "TOTALTRACKS=%numtracks%" -T "GENRE=%genre%" -T "ALBUMARTIST=%albumartist%" -T "ALBUM ARTIST=%albumartist%" -T "COMMENT=EAC Secure Mode, Test & Copy, AccurateRip, FLAC -8" %source%


TOC of the extracted CD

     Track |   Start  |  Length  | Start sector | End sector 
    ---------------------------------------------------------
        1  |  0:00.00 |  4:23.34 |         0    |    19758   
        2  |  4:23.34 |  5:13.65 |     19759    |    43298   
        3  |  9:37.24 |  2:46.62 |     43299    |    55810   
        4  | 12:24.11 |  5:48.00 |     55811    |    81910   
        5  | 18:12.11 |  2:14.22 |     81911    |    91982   
        6  | 20:26.33 |  7:16.29 |     91983    |   124711   
        7  | 27:42.62 |  2:14.58 |    124712    |   134819   
        8  | 29:57.45 |  4:32.54 |    134820    |   155273   
        9  | 34:30.24 |  4:20.61 |    155274    |   174834   
       10  | 38:51.10 |  2:53.13 |    174835    |   187822   
       11  | 41:44.23 |  5:04.11 |    187823    |   210633   


Track  1

     Filename F:\Torrents\Downloads\Heart - The Box Set Series (2014) [FLAC] {Epic 88843018042}\CD1\01 - Barracuda.wav

     Pre-gap length  0:00:02.00

     Peak level 93.3 %
     Extraction speed 1.8 X
     Track quality 100.0 %
     Test CRC 342E1295
     Copy CRC 342E1295
     Accurately ripped (confidence 1)  [9330D361]  (AR v2)
     Copy OK

Track  2

     Filename F:\Torrents\Downloads\Heart - The Box Set Series (2014) [FLAC] {Epic 88843018042}\CD1\02 - Little Queen.wav

     Peak level 97.1 %
     Extraction speed 2.0 X
     Track quality 100.0 %
     Test CRC D0EA0F62
     Copy CRC D0EA0F62
     Accurately ripped (confidence 1)  [9B412002]  (AR v2)
     Copy OK

Track  3

     Filename F:\Torrents\Downloads\Heart - The Box Set Series (2014) [FLAC] {Epic 88843018042}\CD1\03 - Kick It Out.wav

     Peak level 95.3 %
     Extraction speed 2.0 X
     Track quality 100.0 %
     Test CRC 346D68AE
     Copy CRC 346D68AE
     Accurately ripped (confidence 1)  [A0A1CFC2]  (AR v2)
     Copy OK

Track  4

     Filename F:\Torrents\Downloads\Heart - The Box Set Series (2014) [FLAC] {Epic 88843018042}\CD1\04 - Magic Man (Live).wav

     Peak level 97.4 %
     Extraction speed 2.4 X
     Track quality 100.0 %
     Test CRC C67CC77C
     Copy CRC C67CC77C
     Accurately ripped (confidence 1)  [20DB5091]  (AR v2)
     Copy OK

Track  5

     Filename F:\Torrents\Downloads\Heart - The Box Set Series (2014) [FLAC] {Epic 88843018042}\CD1\05 - Dreamboat Annie (live).wav

     Peak level 91.1 %
     Extraction speed 2.1 X
     Track quality 100.0 %
     Test CRC DB75CF83
     Copy CRC DB75CF83
     Accurately ripped (confidence 1)  [CB2D4EEC]  (AR v2)
     Copy OK

Track  6

     Filename F:\Torrents\Downloads\Heart - The Box Set Series (2014) [FLAC] {Epic 88843018042}\CD1\06 - Mistral Wind (Live).wav

     Peak level 96.7 %
     Extraction speed 2.7 X
     Track quality 100.0 %
     Test CRC 5CB8D3A1
     Copy CRC 5CB8D3A1
     Accurately ripped (confidence 1)  [680FF703]  (AR v2)
     Copy OK

Track  7

     Filename F:\Torrents\Downloads\Heart - The Box Set Series (2014) [FLAC] {Epic 88843018042}\CD1\07 - Sylvan Song.wav

     Peak level 96.0 %
     Extraction speed 1.9 X
     Track quality 99.9 %
     Test CRC 81B36F03
     Copy CRC 81B36F03
     Accurately ripped (confidence 1)  [EAE21E12]  (AR v2)
     Copy OK

Track  8

     Filename F:\Torrents\Downloads\Heart - The Box Set Series (2014) [FLAC] {Epic 88843018042}\CD1\08 - Dream Of The Archer.wav

     Peak level 96.0 %
     Extraction speed 2.8 X
     Track quality 100.0 %
     Test CRC 8AAB6FA1
     Copy CRC 8AAB6FA1
     Accurately ripped (confidence 1)  [13EAE401]  (AR v2)
     Copy OK

Track  9

     Filename F:\Torrents\Downloads\Heart - The Box Set Series (2014) [FLAC] {Epic 88843018042}\CD1\09 - Love Alive.wav

     Peak level 95.0 %
     Extraction speed 2.9 X
     Track quality 100.0 %
     Test CRC DB8021C8
     Copy CRC DB8021C8
     Accurately ripped (confidence 1)  [F581B252]  (AR v2)
     Copy OK

Track 10

     Filename F:\Torrents\Downloads\Heart - The Box Set Series (2014) [FLAC] {Epic 88843018042}\CD1\10 - Cry To Me.wav

     Peak level 96.0 %
     Extraction speed 2.8 X
     Track quality 100.0 %
     Test CRC 2B25D737
     Copy CRC 2B25D737
     Accurately ripped (confidence 1)  [963D13D6]  (AR v2)
     Copy OK

Track 11

     Filename F:\Torrents\Downloads\Heart - The Box Set Series (2014) [FLAC] {Epic 88843018042}\CD1\11 - Straight On.wav

     Peak level 93.8 %
     Extraction speed 2.8 X
     Track quality 99.9 %
     Test CRC 16C48451
     Copy CRC 16C48451
     Accurately ripped (confidence 1)  [96C28BF5]  (AR v2)
     Copy OK


All tracks accurately ripped

No errors occurred

End of status report

---- CUETools DB Plugin V2.1.3

[CTDB TOCID: oSJToU5AlUeEr5IGVnD2.OBFF7g-] disk not present in database, Submit result: oSJToU5AlUeEr5IGVnD2.OBFF7g- has been uploaded


==== Log checksum 6DF78F1B67C6817D2EBB8E0BC069492B2DBE0495E017C2391115533AD7B59A84 ====



Create a new paste based on this one


Comments: